用户
 找回密码
 立即注册
搜索

发帖

[16Bit] 阿姐鼓作者 何训有 - 说唱俑 HQII 16周年纪念限量版 2020 [WAV/16-44]

[复制链接]
发表于 2020-5-23 02:08:00
本帖最后由 东木小子 于 2020-5-23 23:51 编辑

封面:
cover.jpg

简介:
何训有,四川遂宁人。自由音乐人,音乐学院教授。中国第三种音乐的首提者、履行者。著名音乐人何训田的兄弟。相对何训田来说,何训有没有他哥哥那么出名,他更像一位幕后英雄。但实际上,广为人所熟知的朱哲琴及其多张音乐作品就是他们2位打造出来的。

优美的音乐和生活噪音或方言似乎搭不上边,川籍著名作曲家何训有大胆尝试,创作出专辑《说唱俑》。何训有表示,现在的中国音乐因“缺钙”,阴柔有余,而他的《说唱俑》不但要为中国音乐“补钙”,还要为歌迷醒醒瞌睡。

被何训有纳入其中的音乐居然是四川方言、生活噪音以及各种自然声,但这些声音经过整合排序,成了非常悦耳的音乐,而大量的元素音乐和旋律也非常新鲜。通过骨子里的幽默,提炼成很不一般的音乐形式, 被称为无法归类的“第三种音乐”。其深厚的民俗文化底蕴和地域特色,但又充满现代音乐的灵性,录音效果同样出色考究。让人无法忘怀.相信你一定会喜欢上这张专辑!

音乐,是所有人都不会陌生的领域。从古典、爵士、摇滚、通俗、民族等各种不同的音乐形式和风格中,人们总会找到符合自己审美情趣和情感需求的音乐类型。而所有这些音乐中,美好、优秀的音乐作品总是和优美的旋律,动人的词曲,协调有序的音律布局联系在一起的。

“音乐居然可以这样做!”这是何训有带给中国音乐界的冲撞,也是一个惊喜。在他的《说唱俑》中,居然可以有平日里上不得台面的方言、生活噪音,还有各种自然元素,比如水流声、鸟鸣、走路的脚步声、花开的韵律,甚至就是寂静中也传来冥冥的音波。而更为惊奇的是,这一切结合得如此奇妙而和谐。

《说唱俑》正式推出前的试听会上,它轰炸了无数参与者的耳朵。人们的耳朵已经习惯了在规矩有序的旋律模式中寻求安慰,像午后的长睡,悦耳却不会被惊醒。而何训有打破了这种戒律,原滋原味的方言,初听似粗糙实则镶嵌巧妙的各种元素音,无疑是对听者耳朵的一次革命。而何训有对此则表示,“人的耳朵跟人的眼睛一样,在规范样式中总感到疲倦,突破了这些样式就可以“醒醒瞌睡”。

说唱俑,中国人是不陌生的。它是我国古代表演滑稽戏的俳优造型,它的特点是诙谐、幽默,多为一人说唱,以小鼓击节伴奏。作为汉代陶俑的突出代表,说唱俑集中体现了我国两千多年前的艺术家对神韵的理解与追求——在写实的基础上刻划精神,以形似求神似。艺术家截取说唱艺术最精彩的说唱举动,利用形体夸张及人物面部表情变化来突出艺术形象,看似头大身小,躯体粗短,身材比例失调,但恰因如此,其丰富的说唱内容、醉人的表演状态,及演艺者感情的自然流露,被刻划得维妙维肖,恰到好处。

可以说,说唱俑是我国民间文艺的集中代表。它朴实的外观,蕴涵了民间不息的生命力和创造力;它的幽默,正是中国传统生活观的豁达和宽广。可能,正是因为它生于民间,演于民间,又始终忠于民间,何训有才用它的名字来作为自己这张音乐的灵魂,并且专门制作了一曲“说唱俑”。

《说唱俑》是西部音乐中民间、民族、民俗特色颇强的创作集,取材于四川民间民族民俗生活场景,通过对过去各个历史时期平民生活的想象、揣摩、生发,用音乐的语言描绘出一幅四川民间的“清明上河图”。作品是自然音响、打击乐、人声吟唱、电子音乐的有机结合。

何训有把四川的方言语言、自然噪音、本土氛围,通过骨子里的幽默,提炼成很不一般的音乐形式。由于它无法被归属于任何一种我们耳熟能详的音乐类型,因此被称为 “第三种音乐”,其深厚的民俗文化底蕴和地域特色,让人无法忘怀。从一层又一层的寂静中传来的《寂静之声》;《汉风中》浣纱女在河边浣沙;充满童趣的《巴郎鼓》;深深悠长的《吹土罐的人们》;诙谐、幽默的《说唱俑》;神秘夜晚盛开的《织茧》;饱含冲天豪气的《风·马·酒》,完全让你的听觉惯性突然刹车,在你的面前展现出一个崭新的听觉世界。

何训有说,现在的中国音乐因为“缺钙”,阴柔有余,一味模仿西方现代音乐的套路和风格,自己传统的精神却日渐稀少,他的《说唱俑》就是要为中国音乐“补补钙”。这张唱片在注重中国传统特质的同时,又充满了现代音乐的灵性,录音效果同样出色考究。

相对于哥哥何训田来说,何训有没有那么出名,他更像是一位幕后英雄。而广为流传的《阿姐鼓》就是他的作品,在国际音乐界享有盛名的朱哲琴及其多张音乐作品,也是他和哥哥何训田共同打造和创作出来的。多年来,他除了在主流音乐领域的创作外,也始终坚持挖掘中国音乐的内在张力,始终尝试用不同的方式来诠释音乐,以及生活。

当媒体聚焦于《说唱俑》时,一向低调的何训有说:
运用已有音乐元素和架构的人说,习惯内的力量是伟大的;创造新有音乐元素和架构的人说,习惯外的力量是广阔的。当然,这中间有一段路程。
  怎么走,走多远,全凭自己的心力和脚力。每一段路都会有每一段的风景。当在旧发音体上弄出新的动静来和发明新的发音体越来越困难的时候,当题材园地越来越少的时候,我依然继续在做,并让它们在我的作品中自由地响着。


曲目:
01. 寂静之声(为尼玛少女合唱团而作)
02. 汉风(为盘鼓竹笛和拔弦琴而作)
03. 巴郎鼓(为天堂少女合唱团而作)
04. 吹土罐的人们(为土灌和埙而作)
05. 说唱俑(为说唱佣塑像而作)
06. 鲤鱼飞(为编钟钲锣鼓笛和男声而作)
07. 织兰(为天堂少女合唱团而作)
08. 风·马·酒(为达瓦男声合唱团而作)     

支付15新币支付
使用道具 举报 回复
发表于 2020-5-23 02:09:11
Exact Audio Copy V1.3 from 2. September 2016

EAC 抓取日志文件从17. 五月 2020, 22:51

何训有 / 说唱俑 HQII 16周年纪念限量版

使用驱动器  :YAMAHA  CRW-F1E   Adapter: 1  ID: 0

读取模式      : 可靠Secure
使用精确流     : 是
清空音频缓存    : 是
使用 C2 指示器 : 否

读取偏移校正:               : 733
读取 Lead-In 和 Lead-Out : 否
用静音填充抓取中丢失偏移的采样       : 是
去除首尾静音块               : 否
在CRC 计算中使用了空样本       : 是
已用接口                  : Win NT 及 2000 本地 Win32 接口

所用输出模式: : 内部 WAV 函数
样本格式    : 44.100 Hz; 16 Bit; 立体声


已抓取 CD 的 TOC

     音轨 |    起始    |    长度    |  起始扇区  |  结束扇区  
    --------------------------------------------
      1 |  0:00.00 |  4:31.10 |      0 |  20334
      2 |  4:31.10 |  5:47.10 |  20335 |  46369
      3 | 10:18.20 |  5:48.10 |  46370 |  72479
      4 | 16:06.30 |  5:06.10 |  72480 |  95439
      5 | 21:12.40 |  6:06.10 |  95440 | 122899
      6 | 27:18.50 |  4:13.10 | 122900 | 141884
      7 | 31:31.60 |  6:32.10 | 141885 | 171294
      8 | 38:03.70 |  5:47.10 | 171295 | 197329


范围状态及错误

已选择范围

     文件名 C:\Users\Administrator\Desktop\何训有 - 说唱俑 HQII 16周年纪念限量版.wav

     峰值电平 100.0 %
     抓取速度 4.2 X
     范围质量 99.9 %
     复制 CRC 2A67684B
     复制成功

没有错误发生
使用道具 举报 回复 支持 反对
发表于 2020-5-23 07:26:43
贵了点给你改了
使用道具 举报 回复 支持 反对
发表于 2020-5-23 08:57:51
多谢楼主分享
使用道具 举报 回复 支持 反对
发表于 2020-5-25 14:45:33
万分感谢!上次群里说这次有就有了
使用道具 举报 回复 支持 反对
发表于 2020-5-25 21:08:27
是的,我也是听了西瓜视频范先参先生发的汕头方先生的系统播放的风马酒,才晓得还有这个专辑,而且是何训田的哥哥,
使用道具 举报 回复 支持 反对
发表于 2020-5-26 01:05:44
感谢楼主分享
使用道具 举报 回复 支持 反对
发表于 2020-5-26 02:51:00
谢谢楼主的分享!!!
使用道具 举报 回复 支持 反对
发表于 2020-5-26 07:30:40
谢谢楼主的分享!!!
使用道具 举报 回复 支持 反对
发表于 2020-5-26 14:22:36
感谢楼主分享
使用道具 举报 回复 支持 反对
发表于 2020-5-26 20:22:58
感谢楼主分享
使用道具 举报 回复 支持 反对
发表于 2020-5-28 21:38:23
谢谢楼主的分享!
使用道具 举报 回复 支持 反对
发表于 2020-5-29 10:17:52
感谢楼主分享!
使用道具 举报 回复 支持 反对
发表于 昨天 10:40
谢谢楼主的分享!!!
使用道具 举报 回复 支持 反对
您需要登录后才可以回帖 登录 | 立即注册

本版积分规则