用户
 找回密码
 立及住厕
搜索

发帖

[24Bit_32Bit] VA - Cheskys Best Of The 2010s (2020) [FLAC/24/192]

[复制链接]
发表于 2020-1-18 18:22:51
本帖最后由 WH13WH 于 2020-1-18 19:10 编辑

folder.jpg

Hires音乐简介:
QQ图片20200118182309.png


曲目:
01 Wycliffe Gordon - When the Saints Go Marching In (4:33)
02 Alexis Cole - Ain't We Got Fun (4:04)
03 Casey Abrams - Why Don’t You Do Right? (3:00)
04 Macy Gray - First Time (4:11)
05 City Of The Sun - Everything (5:38)
06 Meiko - Zombie (3:09)
07 Bucky Pizzarelli - All The Things You Are (5:22)
08 Xiomara Laugart - Las Perlas De Tu Boca (4:22)
09 John McEuen - Excitable Boy (2:53)
10 Candido - Conga Descarga (5:34)
11 Camille Thurman - September In The Rain (4:45)
12 Amber Rubarth - Full Moon in Paris (3:26)
13 Melissa Menago - Traveler (3:57)
14 Anna Nalick - As Time Goes By (3:16)

查看更多内容请登录



本主题所有无损音乐内容均为互联网采集所得,本站仅对作品介绍展示,不直接提供下载服务。另本站音乐相关内容皆从网上搜集转载,如侵犯您的权益,请通知我们,我们将及时删除。如果你喜欢主题所述内容,请你通过正规渠道购买正版。

使用道具 举报 回复
发表于 2020-1-18 19:46:16
喜欢VA 前来支持下
使用道具 举报 回复 支持 反对
发表于 2020-1-18 19:59:38
下载试听 效果好的一比  特别是第一首 爆棚了
使用道具 举报 回复 支持 反对
发表于 2020-1-18 20:54:36
Chesky重磅兵器来了
回帖积分奖励:+2新币
使用道具 举报 回复 支持 反对
发表于 2020-1-18 21:02:38
不愧是大佬,牛逼
回帖积分奖励:+2新币
使用道具 举报 回复 支持 反对
发表于 2020-1-18 21:23:19
Really excited to listen to this wonderful album.
Thank you so much!!!
使用道具 举报 回复 支持 反对
发表于 2020-1-18 23:04:56
REM GENRE Samples
REM DATE 2020
PERFORMER "VA From Cheskys"
TITLE "Cheskys Best Of The 2010s"
FILE "01-When the Saints Go Marching In.flac" WAVE
  TRACK 01 AUDIO
PERFORMER "怀克里夫·戈登/选自《新奥尔良之梦 Dreams of New Orleans》"   
    TITLE "When the Saints Go Marching In 圣徒进行时"
  INDEX 01 00:00:00
FILE "02-Ain't We Got Fun.flac" WAVE
  TRACK 02 AUDIO
PERFORMER "亚历克西斯·科尔/选自《暗夜之吻 Kiss in the Dark》"
    TITLE "Ain't We Got Fun 我们不是在找乐"
    INDEX 01 00:00:00
FILE "03-Why Don't You Do Right?.flac" WAVE
  TRACK 03 AUDIO
PERFORMER "凯西·艾布拉姆斯/选自《爵士乐 Jazz》"
    TITLE "Why Don't You Do Right 为啥不好好干?"
    INDEX 01 00:00:00
FILE "04-First Time.flac" WAVE
  TRACK 04 AUDIO
PERFORMER "玛西·格雷/选自《脱衣舞娘 Stripped》"
    TITLE "First Time 初夜"
    INDEX 01 00:00:00
FILE "05-Everything.flac" WAVE
  TRACK 05 AUDIO
PERFORMER "太阳之城/选自《在太阳与城市之间  To the sun and all the cities in between》"
    TITLE "Everything 一切"
    INDEX 01 00:00:00
FILE "06-Zombie.flac" WAVE
  TRACK 06 AUDIO
PERFORMER "美子/选自《厚此薄彼 Playing Favorites》"
    TITLE "Zombie 僵尸"
    INDEX 01 00:00:00
FILE "07-All The Things You Are.flac" WAVE
  TRACK 07 AUDIO
PERFORMER "布基·皮萨瑞里/选自《三人团 Three For All》"
    TITLE "All The Things You Are 你是我的所有"
    INDEX 01 00:00:00
FILE "08-Las Perlas De Tu Boca.flac" WAVE
  TRACK 08 AUDIO
PERFORMER "西玛拉·劳加特/选自《泪与伦巴 Tears and Rumba》"
    TITLE "Las Perlas De Tu Boca 口中珍宝"
    INDEX 01 00:00:00
FILE "09-Excitable Boy.flac" WAVE
  TRACK 09 AUDIO
PERFORMER "约翰·麦可尤恩/选自《在布鲁克林 Made in Brooklyn》"
    TITLE "Excitable Boy 激动的男孩"
    INDEX 01 00:00:00
FILE "10-Conga Descarga.flac" WAVE
  TRACK 10 AUDIO
PERFORMER "坎迪/选自《世纪教主 The Master》"
    TITLE "Conga Descarga 康加鼓到场"
    INDEX 01 00:00:00
FILE "11-September In The Rain.flac" WAVE
  TRACK 11 AUDIO
PERFORMER "卡米尔·瑟曼/选自《等候日出 Waiting for the Sunrise》"
    TITLE "September In The Rain 九月秋雨"
    INDEX 01 00:00:00
FILE "12-Full Moon in Paris.flac" WAVE
  TRACK 12 AUDIO
PERFORMER "鲁巴思/选自《17区的会期 Sessions from the 17th Ward》"
    TITLE "Full Moon in Paris 圆月映花都"
    INDEX 01 00:00:00
FILE "13-Traveler.flac" WAVE
  TRACK 13 AUDIO
PERFORMER "梅丽莎·梅纳戈/选自《小罪过 Little Crimes》"
    TITLE "Traveler 旅行家"
    INDEX 01 00:00:00
FILE "14-As Time Goes By.flac" WAVE
  TRACK 14 AUDIO
PERFORMER "安娜·娜丽克/选自《绝黑乌鸦 The Blackest Crow》"
    TITLE "As Time Goes By 时光流逝"
    INDEX 01 00:00:00

使用道具 举报 回复 支持 反对
发表于 2020-1-18 23:13:27
xingfupingmin 发表于 2020-1-18 23:04
REM GENRE Samples
REM DATE 2020
PERFORMER "VA From Cheskys"

干啥
使用道具 举报 回复 支持 反对
发表于 2020-1-19 07:09:28

忘记注明了,做个cue分享下方便播放,如果错了,那以后就不再这样玩了
使用道具 举报 回复 支持 反对
发表于 2020-1-19 10:29:04
xingfupingmin 发表于 2020-1-19 07:09
忘记注明了,做个cue分享下方便播放,如果错了,那以后就不再这样玩了

又不是整轨 要cue干嘛
使用道具 举报 回复 支持 反对
发表于 2020-1-19 10:43:59
有时打开文件夹后播放整专需全选,比如有人用foobar,则可直接cue拖进,且可看到编辑信息。只做参考而已,如有违规,再次抱歉
使用道具 举报 回复 支持 反对
发表于 2020-1-19 10:46:33
有时用m3u也可,但无法编辑。个人使用总结,非喜勿喷,日后将不作此种回复
使用道具 举报 回复 支持 反对
发表于 2020-1-19 10:49:50
该cue是专为分轨而编,很多专辑如此
使用道具 举报 回复 支持 反对
发表于 2020-1-19 11:16:14
WH13WH 发表于 2020-1-19 10:29
又不是整轨 要cue干嘛

相信前辈比我懂得更多。前期如有某处冒犯纯属无意,在此一并致歉!
使用道具 举报 回复 支持 反对
发表于 2020-1-19 12:10:23


新来的,unzip解压码是什么?谢谢
使用道具 举报 回复 支持 反对
发表于 2020-1-19 12:22:57
geekee 发表于 2020-1-19 12:10
新来的,unzip解压码是什么?谢谢

那个链接 复制粘贴   前后不要有空格
使用道具 举报 回复 支持 反对
发表于 2020-1-19 12:47:27
WH13WH 发表于 2020-1-19 12:22
那个链接 复制粘贴   前后不要有空格

可以了!感恩
使用道具 举报 回复 支持 反对
发表于 2020-1-19 12:51:33
xingfupingmin 发表于 2020-1-19 10:49
该cue是专为分轨而编,很多专辑如此

随便加 , 给需要的人。
使用道具 举报 回复 支持 反对
发表于 2020-1-19 18:31:54
果断收下!
使用道具 举报 回复
发表于 2020-1-19 22:35:34
收下了。。。。。。。感谢楼主
使用道具 举报 回复 支持 反对
发表于 2020-1-20 01:59:16
收下了,谢谢楼主。
回帖积分奖励:+2新币
使用道具 举报 回复 支持 反对
发表于 2020-1-22 19:22:19
不知道为什么每次输入都显示密码错误
使用道具 举报 回复 支持 反对
发表于 2020-1-22 20:04:52
Amigoria 发表于 2020-1-22 19:22
不知道为什么每次输入都显示密码错误

复制粘贴
前后不要有空格
使用道具 举报 回复 支持 反对
*滑块验证:
您需要登录后才可以回帖 登录 | 立及住厕

本版积分规则