用户
 找回密码
 立及住厕
搜索

发帖

[16Bit] 张玮伽 - 一生所爱 HQCDII 头版限量 2019 [WAV/16-44.1]

[复制链接]
发表于 6 天前
封面:
cover.jpg

简介:
憧憬的、愉悦的
热烈的、伤心的
悔恨的、释然的......
这一次,我们将“爱”的千百种方式
写进词里,唱在歌里。
她,用自己磁性细腻的歌声
述说着自己对“爱”的感受
一生何求?
必当是一生所爱!

时隔一年,潜心制作
既流行,又发烧!
《一生所爱》中收录了12首动人心扉的歌曲,张玮伽别具一格的演唱风格,把每一首歌都演唱出了自己的味道,对于爱情、梦想、人生,她有态度,有方向,歌声直击人心。别出心裁的编曲,加上玮伽磁性细腻的嗓音,这一张流行发烧专辑,不可错过......

无损音乐曲目:
1.我的梦
2.空白格
3.小宝贝
4.要死就一定死在你手里
5.崇拜
6.我等到花儿也谢了
7.为爱痴狂
8.无悔
9.酒醉的探戈
10.记事本
11.如果这都不算爱
12.一生所爱

查看更多内容请登录


本主题所有hirs音乐和无损音乐内容均为互联网采集所得,本站仅对作品介绍展示,不直接提供下载服务。另本站音乐相关内容皆从网上搜集转载,如侵犯您的权益,请通知我们,我们将及时删除。如果你喜欢主题所述内容,请你通过正规渠道购买正版。
使用道具 举报 回复
Exact Audio Copy V1.3 from 2. September 2016

EAC 抓取日志文件从1. 十二月 2019, 21:34

张玮伽 / 一生所爱 HQCDII

使用驱动器  :YAMAHA  CRW-F1E   Adapter: 1  ID: 0

读取模式      : 可靠Secure
使用精确流     : 是
清空音频缓存    : 是
使用 C2 指示器 : 否

读取偏移校正:               : 733
读取 Lead-In 和 Lead-Out : 否
用静音填充抓取中丢失偏移的采样       : 是
去除首尾静音块               : 否
在CRC 计算中使用了空样本       : 是
已用接口                  : Win NT 及 2000 本地 Win32 接口

所用输出模式: : 内部 WAV 函数
样本格式    : 44.100 Hz; 16 Bit; 立体声


已抓取 CD 的 TOC

     音轨 |    起始    |    长度    |  起始扇区  |  结束扇区  
    --------------------------------------------
      1 |  0:00.00 |  4:15.49 |      0 |  19173
      2 |  4:15.49 |  4:13.06 |  19174 |  38154
      3 |  8:28.55 |  3:45.20 |  38155 |  55049
      4 | 12:14.00 |  4:19.68 |  55050 |  74542
      5 | 16:33.68 |  4:31.11 |  74543 |  94878
      6 | 21:05.04 |  4:56.07 |  94879 | 117085
      7 | 26:01.11 |  4:53.18 | 117086 | 139078
      8 | 30:54.29 |  4:30.23 | 139079 | 159351
      9 | 35:24.52 |  4:25.74 | 159352 | 179300
     10 | 39:50.51 |  4:13.67 | 179301 | 198342
     11 | 44:04.43 |  3:51.44 | 198343 | 215711
     12 | 47:56.12 |  4:55.22 | 215712 | 237858


范围状态及错误

已选择范围

     文件名 C:\Users\Administrator\Desktop\张玮伽 - 一生所爱 HQCDII.wav

     峰值电平 99.9 %
     抓取速度 4.9 X
     范围质量 100.0 %
     复制 CRC 4DCB53BF
     复制成功

没有错误发生
使用道具 举报 回复 支持 反对
谢谢分享
使用道具 举报 回复
張瑋伽於有新CD
回帖积分奖励:+2新币
使用道具 举报 回复 支持 反对
网上听了方先生的金池落地演唱新专辑的歌,才晓得张伟伽有新专辑了,终于盼到了,太好了!
使用道具 举报 回复 支持 反对
好碟。谢谢分享。
使用道具 举报 回复 支持 反对
发表于 6 天前
好歌好碟,谢谢分享。
使用道具 举报 回复 支持 反对
好像听这专辑。
使用道具 举报 回复 支持 反对
发表于 4 天前
终于盼到了,太好了!
使用道具 举报 回复 支持 反对
感谢楼主分享
使用道具 举报 回复 支持 反对
感谢楼主分享~~~
使用道具 举报 回复 支持 反对
您需要登录后才可以回帖 登录 | 立及住厕

本版积分规则