用户
 找回密码
 立及住厕
搜索

发帖

[16Bit] 钟志刚 - 淡淡君情 24K金限量头版 2019 [WAV/16-44.1]

[复制链接]
发表于 7 天前
封面:
cover.jpg

简介:
时隔两年,小刚再出新的发烧个人专辑啦。
岗拉美朵唱片出版了小刚的最新专辑《淡淡君情》,24K纯金版本,这张唱片筹备了将近一年,由小刚自己负责编曲、乐器录音和演唱。

小刚全名是钟志刚,他是著名原创音乐人、郭兰英老师关门弟子,湖南长沙人,现在定居在大理,开了一间叫听宫的民宿。
他的原创歌曲包括《月亮粑粑》等。
钟志刚曾获华语金曲奖最佳男歌手,深圳最佳唱作人等,出版过八张唱片以上唱片,创作过一千余首歌曲,是广东省音乐家协会及流行音乐协会会员。

小刚在广州、深圳、佛山一共生活了20多年,去年开始定居大理,经营自己的民宿,也借此沉甸自己、采风音乐、回归田园。
这张唱片是小刚向邓丽君姐姐致敬的一张唱片,可以说是小刚对邓丽君歌曲的再创作。
唱片中有很多云南大理的元素,例如《小城故事》就是在小刚民宿的小院子了录的背景声音。
然后唱片也加入了很多民族乐器,例如葫芦丝、萧、陶笛、唢呐、竹笛等等。

唱片一共限量发行2000张,每张有独立收藏编号。
唱片中还有很多小刚的大理生活剪影,例如《路边的野花》中打击乐用的是厨房里的锅碗瓢盆,原来这些厨具有节奏的敲起来特别好听。《何日君再来》是小刚在喝了3两白酒后录的,大家听听歌声中有没有酒味。
《月亮代表我的心》是小刚女儿妮妮唱的开头,录完后她天天喜欢哼哼“轻轻的一个吻……”
唱片的乐器都是在小刚民宿内的听宫音乐工作室录音。

这张唱片中,小刚的声音有磁性、够浑厚,有沧桑味,值得慢慢品味,他分别用深情、戏谑、风趣等各种演唱方式去表达唱片中12首歌曲的万种风情。
以下请欣赏唱片中第9首《又见炊烟》,小刚用清绵的唱腔、馨然的配乐,给人带来无尽的遐想。
这首歌中的笛子是由一位盲人音乐家吹奏,是小刚在一个校际音乐比赛中发现的人才,他的笛子可是吹得出神入化了,把小刚和刚太太都吹得流眼泪了。

唱片内页的制作也非常用心,每首歌都配一幅特别为歌曲而创作的写意抽象画。

邓丽君的歌,是乐坛的一座音乐丰碑,听她歌的人不分阶层、不分年龄、不分区域,所有有华人的角落,几乎都能听到她的歌声,而且她的歌声还能够跨越时空、跨越年代,这的确是一个奇迹。

钟志刚,一位富有个性和实力的歌手,圈友亲切称:小刚。歌友曰:港有区瑞强,陆有钟志刚。歌迷们喜欢他不仅仅是因为浑厚而充满雄性荷尔蒙的嗓音,而是他富有个性的唱腔,别具一格、奇特有别,也许你听过小刚以前的歌,也许你听过各种版本的邓丽君歌曲,但你一定没听过这一版小刚唱腔的《淡淡君情》。

2019年钟志刚新专辑《淡淡君情》,他把邓丽君的歌,用自己别有风趣的唱腔诠释得淋漓尽致,有深情、戏谑、风趣等等各种演唱方式去表达歌曲的内涵,其老道的唱腔,展现了他与众不同的超实力,而且歌曲中的许多配乐多种多样,调皮、花哨、长情的伴乐丰富多彩,没有过多的电子配乐,很多都是富有感情的唱腔和真声配乐,会让你完全沉浸在他的音乐世界里。

好不好听?是不是这样?值不值得珍藏此专辑?你听了就会知道,静静的聆听,相信你一定不会后悔,别错过。我相信音乐是有感情的,无论是演唱者,还是演奏者。


无损音乐曲目:

01.海韵...............03:48

02.月亮代表我的心.....04:30

03.难忘的初恋情人.....04:07

04.无语问苍天.........03:15

05.再见我的爱人.......05:25

06.你怎么说...........03:19

07.路边的野花不要采...03:11

08.小城故事...........04:30

09.又见炊烟...........04:12

10.泪的小雨...........04:01

11.爱的箴言...........04:46

12.何日君再来.........05:03

查看更多内容请登录


本主题所有hirs音乐和无损音乐内容均为互联网采集所得,本站仅对作品介绍展示,不直接提供下载服务。另本站音乐相关内容皆从网上搜集转载,如侵犯您的权益,请通知我们,我们将及时删除。如果你喜欢主题所述内容,请你通过正规渠道购买正版。
使用道具 举报 回复
Exact Audio Copy V1.3 from 2. September 2016

EAC 抓取日志文件从28. 十一月 2019, 0:53

钟志刚 / 淡淡君情 24K金限量头版

使用驱动器  :YAMAHA  CRW-F1E   Adapter: 1  ID: 0

读取模式      : 可靠Secure
使用精确流     : 是
清空音频缓存    : 是
使用 C2 指示器 : 否

读取偏移校正:               : 733
读取 Lead-In 和 Lead-Out : 否
用静音填充抓取中丢失偏移的采样       : 是
去除首尾静音块               : 否
在CRC 计算中使用了空样本       : 是
已用接口                  : Win NT 及 2000 本地 Win32 接口

所用输出模式: : 内部 WAV 函数
样本格式    : 44.100 Hz; 16 Bit; 立体声


已抓取 CD 的 TOC

     音轨 |    起始    |    长度    |  起始扇区  |  结束扇区  
    --------------------------------------------
      1 |  0:00.00 |  3:47.41 |      0 |  17065
      2 |  3:47.41 |  4:30.63 |  17066 |  37378
      3 |  8:18.29 |  4:07.09 |  37379 |  55912
      4 | 12:25.38 |  3:15.19 |  55913 |  70556
      5 | 15:40.57 |  5:25.71 |  70557 |  95002
      6 | 21:06.53 |  3:19.12 |  95003 | 109939
      7 | 24:25.65 |  3:11.69 | 109940 | 124333
      8 | 27:37.59 |  4:30.03 | 124334 | 144586
      9 | 32:07.62 |  4:12.12 | 144587 | 163498
     10 | 36:19.74 |  4:01.70 | 163499 | 181643
     11 | 40:21.69 |  4:46.06 | 181644 | 203099
     12 | 45:08.00 |  5:03.28 | 203100 | 225852


范围状态及错误

已选择范围

     文件名 C:\Users\Administrator\Desktop\钟志刚 - 淡淡君情 24K金限量头版.wav

     峰值电平 100.0 %
     抓取速度 4.8 X
     范围质量 100.0 %
     复制 CRC 3BC23BD3
     复制成功

没有错误发生
使用道具 举报 回复 支持 反对
谢谢分享
使用道具 举报 回复
這個試聽一下......
使用道具 举报 回复 支持 反对
听过成都小春在B站的全套试音,好听,韵味足,小刚是个唱商特高的歌手,特别的喜欢!
使用道具 举报 回复 支持 反对
发表于 7 天前
好资源,谢谢。
回帖积分奖励:+2新币
使用道具 举报 回复 支持 反对
很喜欢他的声音,现在hifi人声越来越少了
使用道具 举报 回复 支持 反对
发表于 昨天 14:50
听过一次,有点像女低音,呵。谢谢。
使用道具 举报 回复 支持 反对
您需要登录后才可以回帖 登录 | 立及住厕

本版积分规则