用户
 找回密码
 立及住厕
搜索

发帖

[16Bit] 张栋梁 - 最好的快要发生 2018 [FLAC分轨/16bit/44Khz]

[复制链接]
发表于 2019-11-29 12:00:00
封面:
1574924191431.jpg

简介:
【抓轨日志(节选)】
Exact Audio Copy V1.3 from 2. September 2016


EAC 抓取日志文件从7. 四月 2018, 15:11


張棟樑 / 最好的快要發生


使用驱动器  :hp      CDDVDW SU-208CB   Adapter: 1  ID: 0


读取模式      : 可靠Secure
使用精确流     : 是
清空音频缓存    : 否
使用 C2 指示器 : 否


组合读写偏移校正:             : 0
读取 Lead-In 和 Lead-Out : 否
用静音填充抓取中丢失偏移的采样       : 是
去除首尾静音块               : 否
在CRC 计算中使用了空样本       : 是
已用接口                  : Win NT 及 2000 本地 Win32 接口
间隙处理                  : 没检测到,因此追加到上一曲目


所用输出模式:   : 用户定义的编码器
已选比特率     : 768 kBit/s
质量        : 高
添加 ID3 标签 : 否
命令行压缩器    : D:\Pictures\ExactAudioCopy\FLAC\FLAC.EXE
附加命令行参数:  : -6 -V -T "ARTIST=%artist%" -T "TITLE=%title%" -T "ALBUM=%albumtitle%" -T "DATE=%year%" -T "TRACKNUMBER=%tracknr%" -T "GENRE=%genre%" -T "COMMENT=%comment%" -T "BAND=%albuminterpret%" -T "ALBUMARTIST=%albuminterpret%" -T "COMPOSER=%composer%" %haslyrics%--tag-from-file=LYRICS="%lyricsfile%"%haslyrics% -T "DISCNUMBER=%cdnumber%" -T "TOTALDISCS=%totalcds%" -T "TOTALTRACKS=%numtracks%" %hascover%--picture="%coverfile%"%hascover% %source% -o %dest%




已抓取 CD 的 TOC


     音轨 |    起始    |    长度    |  起始扇区  |  结束扇区  
    --------------------------------------------
      1 |  0:00.00 |  2:09.41 |      0 |   9715
      2 |  2:09.41 |  5:04.35 |   9716 |  32550
      3 |  7:14.01 |  3:37.68 |  32551 |  48893
      4 | 10:51.69 |  4:48.01 |  48894 |  70494
      5 | 15:39.70 |  4:14.23 |  70495 |  89567
      6 | 19:54.18 |  4:34.73 |  89568 | 110190
      7 | 24:29.16 |  1:40.04 | 110191 | 117694

无损音乐曲目:
1、 First Light
2、鱼与熊掌
3、晴天树
4、玻璃缸
5、自己的风雨
6、最好的快要发生
7、Keep Going

查看更多内容请登录


本主题所有hirs音乐和无损音乐内容均为互联网采集所得,本站仅对作品介绍展示,不直接提供下载服务。另本站音乐相关内容皆从网上搜集转载,如侵犯您的权益,请通知我们,我们将及时删除。如果你喜欢主题所述内容,请你通过正规渠道购买正版。
使用道具 举报 回复
您需要登录后才可以回帖 登录 | 立及住厕

本版积分规则