用户
 找回密码
 立及住厕
搜索

发帖

[16Bit] 朱哲琴 - 月出 2CD 2014 [WAV/16/44]

[复制链接]
发表于 2019-9-8 16:18:49
封面:
TCD-9247_月出_2014032014561550.jpg

简介:
主要音樂家: 朱哲琴
系列: 世界民族
廠牌: 風潮音樂
商品編號: TCD-9247
發行日期: 2014年03月20日
片數: 2CD

這套對照呈現的雙CD專輯
一張為全新的創作,一張為民間原始採樣
主唱人朱哲琴聲貫穿整張作品,賦予專輯鮮明而完整的風格
將多元民族音樂基因與當代時空互動
以突破性的創作觀念,融合當代電子等音樂語彙形式製作的
體現當代精神、面向未來的獨特“中國聲音”

這場長達4年的漫長音樂奇遇緣於2009年
聯合國開發計劃署(UNDP)中國親善大使朱哲琴Dadawa
帶領“世界看見”中國民族文化保護與發展親善行動小組
展開了歷時半年的民族音樂尋訪之旅
深入雲南、內蒙、新疆、西藏、貴州等少數民族聚居地區
將面臨消逝的古老的民族音樂寶藏記錄下來

尋訪之旅的感動和啟發,使朱哲琴立下發願並著手專輯製作
她邀請年輕的蒙古族作曲家蒙柯卓蘭聯手創作
以民族大師的原聲採樣作為主體展開
並與多位代表著中國音樂未來力量的新銳樂人跨界合作
創造出帶有民族音樂基因,煥發時代活力的當代新樂章


无损音乐曲目:

CD1 朱哲琴與各族群的跨界音樂全新創作
         01. 月出               
         02. 山頂               
         03. 風吹草低               
         04. 情人               
         05. 金冠銀冠               
         06. 卡龍琴與埃塞蘇拜               
         07. 揭諦揭諦               
         08. 七月               
         09. 今生               
         10. 來彈琴來跳舞來唱歌        
        
CD2 民族采風-聽見民族音樂尋訪之旅
         01. 貴州黔東南侗族大歌《夏蟬之歌》               
         02. 貴州黔東南苗族飛歌《蹈花魂》               
         03. 貴州黔東南苗族反排多聲部情歌《假如你是一朵花》               
         04. 貴州黔東南番召情歌對唱《陽春三月好風光》               
         05. 貴州黔東南侗族兒歌《筑塘歌》               
         06. 貴州黔東南革東苗族飛歌《春天的時光》               
         07. 雲南紅河彝族四弦琴獨奏               
         08. 雲南西雙版納布朗族男女對唱《好日子》               
         09. 雲南西雙版納景洪市勐罕鎮曼寧村傣族《讚美歌》               
         10. 雲南西雙版納景洪市勐罕鎮曼寧村傣族篳獨奏               
         11. 西藏史詩《格薩爾》之《宗巴帽贊》               
         12. 西藏鷹笛獨奏《東部的山歌》               
         13. 西藏藏北《那曲情歌》對唱               
         14. 西藏日喀則定日民歌《讚美雪山》               
         15. 西藏山南地區青朴山「文則拉康」嗩吶單音               
         16. 西藏山南地區青朴山「文則拉康」《持明總集》片段               
         17. 新疆吐魯番薩塔爾彈唱《阿娜諾爾罕》               
         18. 新疆吐魯番鄯善縣魯克沁鎮手鼓               
         19. 新疆吐魯番中音熱瓦甫獨奏               
         20. 新疆伊犁哈薩克族冬不拉獨奏《白天鵝》               
         21. 新疆阿克蘇刀郎木卡姆卡龍琴獨奏《居拉八亞宛木卡姆》               
         22. 內蒙古蒙古族呼麥四種唱法馬頭琴伴奏               
         23. 內蒙古東烏旗蒙古族男聲長調《褐色的鷹》               
         24. 內蒙古東烏旗蒙古族潮樂獨奏《孤獨的駝羔》               

查看更多内容请登录


本主题所有hirs音乐和无损音乐内容均为互联网采集所得,本站仅对作品介绍展示,不直接提供下载服务。另本站音乐相关内容皆从网上搜集转载,如侵犯您的权益,请通知我们,我们将及时删除。如果你喜欢主题所述内容,请你通过正规渠道购买正版。
使用道具 举报 回复
发表于 2019-9-8 16:21:48
本帖最后由 cccat 于 2019-9-8 16:26 编辑

压缩包内 CD2 的 CUE文件里没有曲目名称,这是修改后的cue文件内容,大家手动修改一下吧
REM DATE 2013
REM DISCID 4A107A18
REM COMMENT "ExactAudioCopy v1.0b2"
PERFORMER "朱哲琴"
TITLE "世界听见民族音乐寻访之旅(CD2)"
FILE "朱哲琴 - 世界听见民族音乐寻访之旅(CD2).wav" WAVE
  TRACK 01 AUDIO
    TITLE "貴州黔東南侗族大歌《夏蟬之歌》"
    PERFORMER "朱哲琴"
    INDEX 01 00:00:00
  TRACK 02 AUDIO
    TITLE "貴州黔東南苗族飛歌《蹈花魂》"
    PERFORMER "朱哲琴"
    INDEX 01 02:42:32
  TRACK 03 AUDIO
    TITLE "貴州黔東南苗族反排多聲部情歌《假如你是一朵花》"
    PERFORMER "朱哲琴"
    INDEX 01 07:10:02
  TRACK 04 AUDIO
    TITLE "貴州黔東南番召情歌對唱《陽春三月好風光》"
    PERFORMER "朱哲琴"
    INDEX 01 10:48:04
  TRACK 05 AUDIO
    TITLE "貴州黔東南侗族兒歌《筑塘歌》"
    PERFORMER "朱哲琴"
    INDEX 01 15:10:14
  TRACK 06 AUDIO
    TITLE "貴州黔東南革東苗族飛歌《春天的時光》"
    PERFORMER "朱哲琴"
    INDEX 01 16:14:74
  TRACK 07 AUDIO
    TITLE "雲南紅河彝族四弦琴獨奏"
    PERFORMER "朱哲琴"
    INDEX 01 17:56:40
  TRACK 08 AUDIO
    TITLE "雲南西雙版納布朗族男女對唱《好日子》"
    PERFORMER "朱哲琴"
    INDEX 01 19:38:06
  TRACK 09 AUDIO
    TITLE "雲南西雙版納景洪市勐罕鎮曼寧村傣族《讚美歌》"
    PERFORMER "朱哲琴"
    INDEX 01 24:46:25
  TRACK 10 AUDIO
    TITLE "雲南西雙版納景洪市勐罕鎮曼寧村傣族篳獨奏"
    PERFORMER "朱哲琴"
    INDEX 01 26:52:69
  TRACK 11 AUDIO
    TITLE "西藏史詩《格薩爾》之《宗巴帽贊》"
    PERFORMER "朱哲琴"
    INDEX 01 27:35:66
  TRACK 12 AUDIO
    TITLE "西藏鷹笛獨奏《東部的山歌》"
    PERFORMER "朱哲琴"
    INDEX 01 29:50:43
  TRACK 13 AUDIO
    TITLE "西藏藏北《那曲情歌》對唱"
    PERFORMER "朱哲琴"
    INDEX 01 31:38:41
  TRACK 14 AUDIO
    TITLE "西藏日喀則定日民歌《讚美雪山》"
    PERFORMER "朱哲琴"
    INDEX 01 34:29:07
  TRACK 15 AUDIO
    TITLE "西藏山南地區青朴山「文則拉康」嗩吶單音"
    PERFORMER "朱哲琴"
    INDEX 01 37:01:56
  TRACK 16 AUDIO
    TITLE "西藏山南地區青朴山「文則拉康」《持明總集》片段"
    PERFORMER "朱哲琴"
    INDEX 01 37:16:01
  TRACK 17 AUDIO
    TITLE "新疆吐魯番薩塔爾彈唱《阿娜諾爾罕》"
    PERFORMER "朱哲琴"
    INDEX 01 42:14:19
  TRACK 18 AUDIO
    TITLE "新疆吐魯番鄯善縣魯克沁鎮手鼓"
    PERFORMER "朱哲琴"
    INDEX 01 45:29:40
  TRACK 19 AUDIO
    TITLE "新疆吐魯番中音熱瓦甫獨奏"
    PERFORMER "朱哲琴"
    INDEX 01 50:06:66
  TRACK 20 AUDIO
    TITLE "新疆伊犁哈薩克族冬不拉獨奏《白天鵝》"
    PERFORMER "朱哲琴"
    INDEX 01 51:41:68
  TRACK 21 AUDIO
    TITLE "新疆阿克蘇刀郎木卡姆卡龍琴獨奏《居拉八亞宛木卡姆》"
    PERFORMER "朱哲琴"
    INDEX 01 56:36:45
  TRACK 22 AUDIO
    TITLE "內蒙古蒙古族呼麥四種唱法馬頭琴伴奏"
    PERFORMER "朱哲琴"
    INDEX 01 60:19:01
  TRACK 23 AUDIO
    TITLE "內蒙古東烏旗蒙古族男聲長調《褐色的鷹》"
    PERFORMER "朱哲琴"
    INDEX 01 65:43:43
  TRACK 24 AUDIO
    TITLE "內蒙古東烏旗蒙古族潮樂獨奏《孤獨的駝羔》"
    PERFORMER "朱哲琴"
    INDEX 01 67:55:46


使用道具 举报 回复 支持 反对
您需要登录后才可以回帖 登录 | 立及住厕

本版积分规则