用户
 找回密码
 立及住厕
搜索

发帖

[16Bit] [WAV][POP] 蔡依林 - 看我72变 2003 16/44

[复制链接]
发表于 2019-8-8 10:16:41
本帖最后由 zhangfanbeckham 于 2019-8-8 14:27 编辑

封面:
看我72变.jpg

简介:
专辑名称: 看我72变
专辑歌手: 蔡依林
发行时间: 2003年3月7日
文件类型:WAV整轨


经过一年多时间的蛰伏,以及与前经理人公司的打官司,2003年蔡依林Jolin回复自由,在她投入新东家后推出首张国语大碟《看我72变》。与大碟同名的主打歌乃电玩游戏《神之领域》的主题曲。
有‘少男杀手’之称的Jolin自从出道以来,一直被塑造为歌坛的流行偶像。今次新唱片公司特别请来台湾五位乐坛制作巨头:黄怡、薛忠铭、周杰伦、李偲菘及王治平,根据Jolin音质、唱腔、定位及潜力,度身订造这张国语专辑。
Jolin这张专辑,突破传统挑选DEMO带的收歌方式,而是直接邀请作曲者针对她的声音特质而设计写歌,于是在选曲时便耗费了数个月的时间,慎选出多元化又适合Jolin的音乐风格。整张新专辑可说融合 Hip-hop、R&B、复古Disco、Funk及改编Rock等丰富的音乐元素,希望能给歌迷‘七十二变’的惊喜!


Hires音乐资源的曲目:
01. 说爱你
02. 看我72变
03. 假面的告白
04. 奴隶船
05. 布拉格广场
06. 做一天的你
07. PROVE IT
08. 爆米花的味道
09. 马甲上的绳索
10. 好东西
11. 骑士精神

查看更多内容请登录


本主题所有hires音乐和无损音乐内容均为互联网采集所得,本站仅对作品介绍展示,不直接提供下载服务。另本站音乐相关内容皆从网上搜集转载,如侵犯您的权益,请通知我们,我们将及时删除。如果你喜欢主题所述内容,请你通过正规渠道购买正版。
使用道具 举报 回复
发表于 2019-8-8 10:21:43
能不能不要发这些老掉牙的东西呀
使用道具 举报 回复 支持 反对
五菱宏光 发表于 2019-8-8 10:21
能不能不要发这些老掉牙的东西呀

这不是满足不同年龄段的需要嘛
使用道具 举报 回复 支持 反对
发表于 2019-10-28 16:40:06
大哥你那个文件的CUE错了,我的FOOBAR2000读不起。这是我堆到其他CUE改的,我现在是用起了不知道准不准。
TITLE "看我72变"
PERFORMER "蔡依林"
FILE "蔡依林-看我72变.wav" WAVE
  TRACK 01 AUDIO
    TITLE "说爱你"
    INDEX 01 00:00:00
  TRACK 02 AUDIO
    TITLE "看我72变"
    INDEX 01 03:46:42
  TRACK 03 AUDIO
    TITLE "假面的告白"
    INDEX 01 07:32:44
  TRACK 04 AUDIO
    TITLE "奴隶船"
    INDEX 01 11:43:11
  TRACK 05 AUDIO
    TITLE "布拉格广场"
    INDEX 01 16:39:63
  TRACK 06 AUDIO
    TITLE "做一天的你"
    INDEX 01 21:34:38
  TRACK 07 AUDIO
    TITLE "Prove It"
    INDEX 01 26:17:53
  TRACK 08 AUDIO
    TITLE "爆米花的味道"
    INDEX 01 29:57:09
  TRACK 09 AUDIO
    TITLE "马甲上的绳索"
    INDEX 01 34:18:30
  TRACK 10 AUDIO
    TITLE "好东西"
    INDEX 01 38:23:15
  TRACK 11 AUDIO
    TITLE "骑士精神"
    INDEX 01 41:38:46
使用道具 举报 回复 支持 反对
发表于 2019-10-28 16:45:01
我又试了一下,就是把WAV文件名“蔡依林 - 看我72变.wav”改为“蔡依林-看我72变.wav”去掉两个空格也可以读出来。希望对后边的兄弟有帮助。
使用道具 举报 回复 支持 反对
您需要登录后才可以回帖 登录 | 立及住厕

本版积分规则