用户
 找回密码
 立及住厕
搜索

发帖

[16Bit] [已更新][WAV][POP] 陈佳 - 又见邓丽君Ⅲ 限量头版 HQCDⅡ 2019 16bit

[复制链接]
发表于 2019-5-24 01:00:25
封面:
cover.jpg

简介:
陈佳《又见邓丽君Ⅲ》HQCDⅡ

她,曾经说过:“传承邓丽君的音乐,一辈子恐怕远远不够”。然而,她实力派的唱腔,却早已将邓丽君那润物细无声和举重若轻的意境表现得淋漓尽致。

她,就是被称为“邓丽君歌曲最佳传承人”的——陈佳。

陈佳用自己的独特方式,来致敬自己永远的偶像。在长时间的准备与制作后,大家翘首以盼的《又见邓丽君Ⅲ》HQCDⅡ版本今日发行!!

想你的时候,窗外似乎又下起了雨。
那些离别的日子,那些伤痛的记忆……
如果能许一个愿,时光是否可以回转?

当岁月不经意地流动,

当陈佳的歌声再次唱响。
我们似乎又听到了邓丽君小姐的音容笑貌。
她的温婉,她的可爱……
犹如,她还在身旁。

再 续 经 典

继《又见邓丽君》Ⅰ&Ⅱ之后,《又见邓丽君Ⅲ》也终于要跟大家见面了。陈佳《又见邓丽君》系列的作品一直都备受欢迎,《又见邓丽君Ⅲ》也延续了前面两张专辑的风格,精选了邓丽君12首经典歌曲,进行重新编曲制作,在陈佳的演绎下,再放光彩。

此次选择的歌曲首首好听并且十分的耐听,陈佳也再次展现了她惊人的语言天赋,收录的歌曲中有中文,有粤语,有英语,还有日语,不同语种经过陈佳“邓式唱法”的演绎下,都各自展现出不同文字发音带出的韵味。

《又见邓丽君》系列歌曲都十分注重人声部分的展现,也许之前大家是被陈佳与邓丽君酷似的嗓音和歌唱方式所吸引,而在《又见邓丽君Ⅲ》中,大家会听到更多陈佳自己对不同歌曲的理解与诠释,全新的演绎展现出陈佳更有魅力的一面。

原班人马,再创佳作

陈佳《又见邓丽君Ⅲ》制作团队:
制作人:廖志茂
制作顾问:何忠、董钧
录音顾问:leo冯
监  制:廖志茂
编  曲:黄志毅、廖志茂、邢孔攀、黄振翼、刘也
录  音:廖志茂、李贵
混  音:李贵

喜欢《又见邓丽君》系列的朋友也许对这个制作团队早已不再陌生。熟悉的制作团队,还是那个熟悉的味道,每一次的录音与制作都是奔着没有最好,只有更好的目标而去。

从《又见邓丽君Ⅰ》一直到《又见邓丽君Ⅲ》,如何一次又一次的突破是非常关键的。由廖志茂老师带领的制作团队已经与陈佳合作多年,早已深深了解陈佳的音色特点,双方的默契度与配合度是愈发的高。

再有,此次的专辑依然由leo冯、何忠、董钧担当制作顾问,对录音进行多次调整修改后,现在发行的这个版本,无论是在层次感,还是解析度都达到了高水准,人声立起,乐器均衡,使之听起来更加通透,质感分明,更具发烧感。

HQCDⅡ头版限量发行3000张

对于热爱音乐的发烧友来说,精细的录音与制作+优质载体+好的音响与设备,每一个环节都是需要考量的。HQCDⅡ一直是乐迷们的不二选择。

这次《又见邓丽君Ⅲ》的发行,必然不可少HQCDⅡ的版本。HQCDⅡ的特性使之整张专辑的人声突出的更加通透细腻,层次分明,质感非凡,每一个音都具有活力。

《又见邓丽君Ⅲ》HQCDⅡ头版限量仅3000张,每一张专辑的封底都会有自己的独立编号。除了考虑音质的优越性之外,选择一张限量头版CD也额外具有收藏意义,陈佳《又见邓丽君Ⅲ》便是一张不可或缺的佳作!
佳 曲 鉴 赏

1.   雨中追忆(粤)
作词:卢国沾  作曲:铃木淳

优雅又富有弹性的琴音,如滴滴雨丝跌落地上,婉转流畅的长笛声,悄悄的几缕吉他和弦,还有陈佳那甜美圆润的歌声,无处不展现着一种缠绵之情。也许只有相思无奈,才会让人念念难忘。这丝丝入扣的雨声,荡人心魄,心中畅美起伏之感无以言表。

2.   船歌
作词:庄奴   印度尼西亚民歌

悠悠的萨克斯,伴随着陈佳那句“呜喂”,不知是风吹动了船帆,还是人迷乱了君心。这首悠扬,却又略带哀伤的《船歌》,不知道能将我的思念送到何方?

3.   天涯歌女
作词:田汉  作曲:贺绿汀

略带40年代老上海味道的前奏,将那个属于30、40年代的青春故事娓娓道来。如翻开家中那本厚厚的照片册,看到了那张笑容清新的脸庞。岁月给我们留下的美好,忧伤,还是痛苦,如今,时间已走的太久,还有多少留存在记忆里?
......

更多佳曲,尽在《又见邓丽君Ⅲ》。



无损音乐曲目:
专辑曲目:

1.  爱的箴言

2.  雨中追忆(粤)

3.  高山青  

4.  船歌

5. 天涯歌女

6. 空港(日)

7.天上天外天无涯

8.Rhythm of the rain(英)

9.如果能许一个愿

10.雪中情(粤)

11.奈何

12.清平调

查看更多内容请登录登陆或注册


本主题所有hirs音乐和无损音乐内容均为互联网采集所得,本站仅对作品介绍展示,不直接提供下载服务。另本站音乐相关内容皆从网上搜集转载,如侵犯您的权益,请通知我们,我们将及时删除。如果你喜欢主题所述内容,请你通过正规渠道购买正版。
使用道具 举报 回复
Exact Audio Copy V1.3 from 2. September 2016

EAC 抓取日志文件从21. 五月 2019, 0:30

陈佳 / 又见邓丽君Ⅲ HQCDⅡ

使用驱动器  :YAMAHA  CRW-F1E   Adapter: 1  ID: 0

读取模式      : 可靠Secure
使用精确流     : 是
清空音频缓存    : 是
使用 C2 指示器 : 否

读取偏移校正:               : 733
读取 Lead-In 和 Lead-Out : 否
用静音填充抓取中丢失偏移的采样       : 是
去除首尾静音块               : 否
在CRC 计算中使用了空样本       : 是
已用接口                  : Win NT 及 2000 本地 Win32 接口

所用输出模式: : 内部 WAV 函数
样本格式    : 44.100 Hz; 16 Bit; 立体声


已抓取 CD 的 TOC

     音轨 |    起始    |    长度    |  起始扇区  |  结束扇区  
    --------------------------------------------
      1 |  0:00.00 |  4:50.57 |      0 |  21806
      2 |  4:50.57 |  3:54.35 |  21807 |  39391
      3 |  8:45.17 |  2:34.73 |  39392 |  51014
      4 | 11:20.15 |  3:58.72 |  51015 |  68936
      5 | 15:19.12 |  3:25.14 |  68937 |  84325
      6 | 18:44.26 |  3:43.17 |  84326 | 101067
      7 | 22:27.43 |  4:25.58 | 101068 | 121000
      8 | 26:53.26 |  3:13.01 | 121001 | 135476
      9 | 30:06.27 |  3:29.07 | 135477 | 151158
     10 | 33:35.34 |  2:54.24 | 151159 | 164232
     11 | 36:29.58 |  2:46.66 | 164233 | 176748
     12 | 39:16.49 |  4:42.44 | 176749 | 197942


范围状态及错误

已选择范围

     文件名 C:\Users\Administrator\Desktop\陈佳 - 又见邓丽君Ⅲ HQCDⅡ.wav

     峰值电平 100.0 %
     抓取速度 4.6 X
     范围质量 100.0 %
     复制 CRC 4DE7D190
     复制成功

没有错误发生
使用道具 举报 回复 支持 反对
发表于 2019-5-24 01:18:13
谢谢东木小子的分享!
使用道具 举报 回复 支持 反对
发表于 2019-5-24 01:22:22
谢谢东木小子的分享!
使用道具 举报 回复 支持 反对
发表于 2019-5-24 01:50:43
谢谢东木小子的分享!
使用道具 举报 回复 支持 反对
发表于 2019-5-24 04:53:27
谢谢东木小子的分享!
使用道具 举报 回复 支持 反对
发表于 2019-5-24 05:26:06
谢谢东木小子的分享!
使用道具 举报 回复 支持 反对
发表于 2019-5-24 06:04:07
谢谢东木小子的分享!
使用道具 举报 回复 支持 反对
发表于 2019-5-24 08:40:22
谢谢分享自购
使用道具 举报 回复 支持 反对
发表于 2019-5-24 08:51:29
谢谢东木小子的分享!
使用道具 举报 回复 支持 反对
发表于 2019-5-24 09:36:34
谢谢东木小子的分享!
使用道具 举报 回复 支持 反对
发表于 2019-5-24 09:39:37
谢谢东木小子的分享!
使用道具 举报 回复 支持 反对
发表于 2019-5-24 10:21:30
谢谢东木小子的分享!
使用道具 举报 回复 支持 反对
发表于 2019-5-24 11:08:53
谢谢东木小子的分享!
使用道具 举报 回复 支持 反对
发表于 2019-5-24 12:21:23
终于等来陈佳的最新专辑了,感谢!
使用道具 举报 回复 支持 反对
发表于 2019-5-24 12:22:01
谢谢东木小子的分享!
使用道具 举报 回复 支持 反对
发表于 2019-5-24 12:32:00
谢谢东木小子的分享!
使用道具 举报 回复 支持 反对
发表于 2019-5-24 13:51:37
谢谢东木小子的分享!
使用道具 举报 回复 支持 反对
发表于 2019-5-24 15:20:53
谢谢东木小子的分享!
使用道具 举报 回复 支持 反对
发表于 2019-5-24 16:32:39
谢谢东木小子的分享!
使用道具 举报 回复 支持 反对
发表于 2019-5-24 18:11:39
谢谢东木小子的分享!
使用道具 举报 回复 支持 反对
发表于 2019-5-24 18:16:51
谢谢东木小子的分享!
使用道具 举报 回复 支持 反对
发表于 2019-5-24 18:36:21
谢谢东木小子的分享!
使用道具 举报 回复 支持 反对
发表于 2019-5-24 18:43:58
谢谢东木小子的分享!
使用道具 举报 回复 支持 反对
发表于 2019-5-24 19:14:54
谢谢东木小子的分享!
使用道具 举报 回复 支持 反对
发表于 2019-5-24 19:59:44
谢谢东木小子的分享!
使用道具 举报 回复 支持 反对
发表于 2019-5-24 20:23:08

谢谢东木小子的分享!
使用道具 举报 回复 支持 反对
发表于 2019-5-24 20:23:26
谢谢东木小子的分享!
使用道具 举报 回复 支持 反对
发表于 2019-5-24 20:25:31
谢谢东木小子的分享!
使用道具 举报 回复 支持 反对
发表于 2019-5-24 20:33:47
谢谢东木小子的分享!
使用道具 举报 回复 支持 反对
您需要登录后才可以回帖 登录 | 立及住厕

本版积分规则