用户
 找回密码
 立及住厕
搜索

发帖

[Blu-ray] [Blu-ray/MKV-REMUX][POP] 甄妮 - 非 . 甄妮音樂會 2014 1080p 35G

[复制链接]
发表于 6 天前
本帖最后由 tsuihosing 于 2019-5-14 05:54 编辑

甄妮
2014
非 甄妮演唱会

folder.jpg


2014年4月24日至26日,樂壇殿堂級歌后甄妮首次站在香港演藝劇院,舉行《非.甄妮音樂會》。是次音樂會純以好歌會友,由金牌製作人杜自持重新編排,以及甄妮的愛女Melody擔任幕後策劃。甄妮不僅選唱她的國粵語金曲,而且從數百首耳熟能詳的名曲之中挑選一系列「非甄妮」的心頭好,如「愛如潮水」、「你知道我在等你嗎」、「征服」、「至少還有你」等重新演繹,她的靚聲加上高質素音樂會,帶來華麗的驚喜。


Format                         : Matroska
Format version                 : Version 4
File size                      : 34.8 GiB
Duration                       : 1 h 58 min
Overall bit rate mode          : Variable
Overall bit rate               : 42.2 Mb/s
Movie name                     : 甄妮2014非 甄妮演唱会
Encoded date                   : UTC 2019-04-04 22:44:23
Writing application            : mkvmerge v32.0.0 ('Astral Progressions') 64-bit
Writing library                : libebml v1.3.7 + libmatroska v1.5.0

Video
ID                             : 1
Format                         : AVC
Format/Info                    : Advanced Video Codec
Format profile                 : High@L4.1
Format settings                : CABAC / 4 Ref Frames
Format settings, CABAC         : Yes
Format settings, ReFrames      : 4 frames
Codec ID                       : V_MPEG4/ISO/AVC
Duration                       : 1 h 58 min
Bit rate mode                  : Variable
Bit rate                       : 31.0 Mb/s
Width                          : 1 920 pixels
Height                         : 1 080 pixels
Display aspect ratio           : 16:9
Frame rate mode                : Constant
Frame rate                     : 29.970 (30000/1001) FPS
Standard                       : NTSC
Color space                    : YUV
Chroma subsampling             : 4:2:0
Bit depth                      : 8 bits
Scan type                      : MBAFF
Scan type, store method        : Interleaved fields
Scan order                     : Top Field First
Bits/(Pixel*Frame)             : 0.499
Stream size                    : 25.5 GiB (73%)
Default                        : Yes
Forced                         : No
Color range                    : Limited
Color primaries                : BT.709
Transfer characteristics       : BT.709
Matrix coefficients            : BT.709

Audio #1
ID                             : 2
Format                         : DTS 96/24 XLL
Format/Info                    : Digital Theater Systems
Commercial name                : DTS-HD Master Audio
Codec ID                       : A_DTS
Duration                       : 1 h 58 min
Bit rate mode                  : Variable
Bit rate                       : 6 590 kb/s
Channel(s)                     : 6 channels
Channel layout                 : C L R Ls Rs LFE
Sampling rate                  : 96.0 kHz
Frame rate                     : 187.500 FPS (512 SPF)
Bit depth                      : 24 bits
Compression mode               : Lossless
Stream size                    : 5.44 GiB (16%)
Language                       : Chinese
Default                        : Yes
Forced                         : No

Audio #2
ID                             : 3
Format                         : PCM
Format settings                : Little / Signed
Codec ID                       : A_PCM/INT/LIT
Duration                       : 1 h 58 min
Bit rate mode                  : Constant
Bit rate                       : 4 608 kb/s
Channel(s)                     : 2 channels
Sampling rate                  : 96.0 kHz
Frame rate                     : 32.000 FPS (3000 SPF)
Bit depth                      : 24 bits
Stream size                    : 3.80 GiB (11%)
Language                       : Chinese
Default                        : No
Forced                         : No

Text #1
ID                             : 4
Format                         : PGS
Muxing mode                    : zlib
Codec ID                       : S_HDMV/PGS
Codec ID/Info                  : Picture based subtitle format used on BDs/HD-DVDs
Duration                       : 1 h 55 min
Bit rate                       : 24.2 kb/s
Count of elements              : 1958
Stream size                    : 20.0 MiB (0%)
Language                       : Chinese
Default                        : No
Forced                         : No

Text #2
ID                             : 5
Format                         : PGS
Muxing mode                    : zlib
Codec ID                       : S_HDMV/PGS
Codec ID/Info                  : Picture based subtitle format used on BDs/HD-DVDs
Duration                       : 1 h 52 min
Bit rate                       : 7 392 b/s
Count of elements              : 602
Stream size                    : 5.94 MiB (0%)
Language                       : Chinese
Default                        : No
Forced                         : No

Menu
00:00:00.000                   : en:(01)00:00:00:000
00:02:14.033                   : en:(02)00:02:14:033
00:04:52.525                   : en:(03)00:04:52:525
00:08:56.102                   : en:(04)00:08:56:102
00:13:32.812                   : en:(05)00:13:32:812
00:19:50.689                   : en:(06)00:19:50:689
00:26:05.130                   : en:(07)00:26:05:130
00:31:18.376                   : en:(08)00:31:18:376
00:36:44.535                   : en:(09)00:36:44:535
00:41:27.885                   : en:(10)00:41:27:885
00:46:59.249                   : en:(11)00:46:59:249
00:51:29.186                   : en:(12)00:51:29:186
00:55:27.824                   : en:(13)00:55:27:824
00:59:23.326                   : en:(14)00:59:23:326
01:05:15.011                   : en:(15)01:05:15:011
01:09:16.986                   : en:(16)01:09:16:986
01:14:57.659                   : en:(17)01:14:57:659
01:19:23.658                   : en:(18)01:19:23:658
01:24:10.678                   : en:(19)01:24:10:678
01:29:40.675                   : en:(20)01:29:40:675
01:34:48.849                   : en:(21)01:34:48:849
01:40:02.029                   : en:(22)01:40:02:029
01:45:42.969                   : en:(23)01:45:42:969
01:48:58.198                   : en:(24)01:48:58:198
01:52:57.003                   : en:(25)01:52:57:003
01:58:12.251                   : en:(26)01:58:12:251


查看更多内容请登录登陆或注册


本主题所有Hires音乐和无损音乐内容均为互联网采集所得,本站仅对作品介绍展示,不直接提供下载服务。另本站音乐相关内容皆从网上搜集转载,如侵犯您的权益,请通知我们,我们将及时删除。如果你喜欢主题所述内容,请你通过正规渠道购买正版。

使用道具 举报 回复
谢谢tsuihosing的分享!
使用道具 举报 回复 支持 反对
谢谢tsuihosing的分享!
使用道具 举报 回复 支持 反对
谢谢tsuihosing的分享!
使用道具 举报 回复 支持 反对
发表于 6 天前
怎麼不能解壓縮? 有大大同一情況嗎?
使用道具 举报 回复 支持 反对
发表于 6 天前
谢谢tsuihosing的分享!
使用道具 举报 回复 支持 反对
谢谢tsuihosing的分享!
使用道具 举报 回复 支持 反对
谢谢tsuihosing的分享!
使用道具 举报 回复 支持 反对
谢谢tsuihosing的分享!
使用道具 举报 回复 支持 反对
谢谢tsuihosing的分享!
使用道具 举报 回复 支持 反对
谢谢tsuihosing的分享!
使用道具 举报 回复 支持 反对
谢谢tsuihosing的分享!
使用道具 举报 回复 支持 反对
发表于 昨天 08:05
谢谢tsuihosing的分享!
使用道具 举报 回复 支持 反对
您需要登录后才可以回帖 登录 | 立及住厕

本版积分规则