用户
 找回密码
 立及住厕
搜索

发帖

[Blu-ray] [Blu-ray/MKV-REMUX][POP] 郑秀文 - 世界巡回演唱会香港站 2009 1080p 37G

[复制链接]
发表于 2019-5-12 22:35:21
本帖最后由 tsuihosing 于 2019-5-14 05:55 编辑

郑秀文
2009
世界巡回演唱会香港站


folder.jpg


General
Format                         : Matroska
Format version                 : Version 4
File size                      : 36.4 GiB
Duration                       : 2 h 27 min
Overall bit rate mode          : Variable
Overall bit rate               : 35.4 Mb/s
Movie name                     : 郑秀文2009世界巡回演唱会香港站
Encoded date                   : UTC 2019-04-04 23:44:48
Writing application            : mkvmerge v32.0.0 ('Astral Progressions') 64-bit
Writing library                : libebml v1.3.7 + libmatroska v1.5.0

Video
ID                             : 1
Format                         : AVC
Format/Info                    : Advanced Video Codec
Format profile                 : High@L4.1
Format settings                : CABAC / 4 Ref Frames
Format settings, CABAC         : Yes
Format settings, ReFrames      : 4 frames
Codec ID                       : V_MPEG4/ISO/AVC
Duration                       : 2 h 27 min
Bit rate mode                  : Variable
Bit rate                       : 23.0 Mb/s
Maximum bit rate               : 29.0 Mb/s
Width                          : 1 920 pixels
Height                         : 1 080 pixels
Display aspect ratio           : 16:9
Frame rate mode                : Constant
Frame rate                     : 29.970 (30000/1001) FPS
Standard                       : NTSC
Color space                    : YUV
Chroma subsampling             : 4:2:0
Bit depth                      : 8 bits
Scan type                      : MBAFF
Scan type, store method        : Interleaved fields
Scan order                     : Top Field First
Bits/(Pixel*Frame)             : 0.371
Stream size                    : 23.7 GiB (65%)
Default                        : Yes
Forced                         : No
Color range                    : Limited
Color primaries                : BT.709
Transfer characteristics       : BT.709
Matrix coefficients            : BT.709

Audio #1
ID                             : 2
Format                         : PCM
Format settings                : Little / Signed
Codec ID                       : A_PCM/INT/LIT
Duration                       : 2 h 27 min
Bit rate mode                  : Constant
Bit rate                       : 4 608 kb/s
Channel(s)                     : 6 channels
Sampling rate                  : 48.0 kHz
Frame rate                     : 32.000 FPS (1500 SPF)
Bit depth                      : 16 bits
Stream size                    : 4.74 GiB (13%)
Language                       : Chinese
Default                        : Yes
Forced                         : No

Audio #2
ID                             : 3
Format                         : DTS 96/24 XLL
Format/Info                    : Digital Theater Systems
Commercial name                : DTS-HD Master Audio
Codec ID                       : A_DTS
Duration                       : 2 h 27 min
Bit rate mode                  : Variable
Bit rate                       : 7 489 kb/s
Channel(s)                     : 6 channels
Channel layout                 : C L R Ls Rs LFE
Sampling rate                  : 96.0 kHz
Frame rate                     : 187.500 FPS (512 SPF)
Bit depth                      : 24 bits
Compression mode               : Lossless
Stream size                    : 7.70 GiB (21%)
Language                       : Chinese
Default                        : No
Forced                         : No

Audio #3
ID                             : 4
Format                         : AC-3
Format/Info                    : Audio Coding 3
Commercial name                : Dolby Digital
Codec ID                       : A_AC3
Duration                       : 2 h 27 min
Bit rate mode                  : Constant
Bit rate                       : 192 kb/s
Channel(s)                     : 2 channels
Channel layout                 : L R
Sampling rate                  : 48.0 kHz
Frame rate                     : 31.250 FPS (1536 SPF)
Bit depth                      : 16 bits
Compression mode               : Lossy
Stream size                    : 202 MiB (1%)
Language                       : Chinese
Service kind                   : Complete Main
Default                        : No
Forced                         : No

Text #1
ID                             : 5
Format                         : PGS
Muxing mode                    : zlib
Codec ID                       : S_HDMV/PGS
Codec ID/Info                  : Picture based subtitle format used on BDs/HD-DVDs
Duration                       : 2 h 23 min
Bit rate                       : 28.2 kb/s
Count of elements              : 2154
Stream size                    : 29.0 MiB (0%)
Language                       : Chinese
Default                        : No
Forced                         : No

Text #2
ID                             : 6
Format                         : PGS
Muxing mode                    : zlib
Codec ID                       : S_HDMV/PGS
Codec ID/Info                  : Picture based subtitle format used on BDs/HD-DVDs
Duration                       : 2 h 23 min
Bit rate                       : 25.8 kb/s
Count of elements              : 2154
Stream size                    : 26.5 MiB (0%)
Language                       : Chinese
Default                        : No
Forced                         : No

Menu
00:00:00.000                   : en:(01)00:00:00:000
00:03:56.069                   : en:(02)00:03:56:069
00:09:17.123                   : en:(03)00:09:17:123
00:12:55.474                   : en:(04)00:12:55:474
00:16:46.705                   : en:(05)00:16:46:705
00:22:19.905                   : en:(06)00:22:19:905
00:30:29.661                   : en:(07)00:30:29:661
00:36:17.441                   : en:(08)00:36:17:441
00:45:55.686                   : en:(09)00:45:55:686
00:48:01.311                   : en:(10)00:48:01:311
00:51:44.734                   : en:(11)00:51:44:734
00:57:23.840                   : en:(12)00:57:23:840
01:01:06.229                   : en:(13)01:01:06:229
01:03:12.655                   : en:(14)01:03:12:655
01:07:28.811                   : en:(15)01:07:28:811
01:12:36.885                   : en:(16)01:12:36:885
01:16:58.513                   : en:(17)01:16:58:513
01:33:05.680                   : en:(18)01:33:05:680
01:37:49.029                   : en:(19)01:37:49:029
01:41:59.613                   : en:(20)01:41:59:613
01:45:10.671                   : en:(21)01:45:10:671
01:54:07.106                   : en:(22)01:54:07:106
01:59:47.246                   : en:(23)01:59:47:246
02:03:33.572                   : en:(24)02:03:33:572
02:07:51.030                   : en:(25)02:07:51:030
02:12:51.396                   : en:(26)02:12:51:396
02:18:55.060                   : en:(27)02:18:55:060
02:27:10.454                   : en:(28)02:27:10:454



查看更多内容请登录登陆或注册


本主题所有Hires音乐和无损音乐内容均为互联网采集所得,本站仅对作品介绍展示,不直接提供下载服务。另本站音乐相关内容皆从网上搜集转载,如侵犯您的权益,请通知我们,我们将及时删除。如果你喜欢主题所述内容,请你通过正规渠道购买正版。

使用道具 举报 回复
谢谢tsuihosing的分享!
使用道具 举报 回复 支持 反对
谢谢tsuihosing的分享!
使用道具 举报 回复 支持 反对
本帖最后由 soronald 于 2019-5-17 21:29 编辑

谢谢tsuihosing的分享!已重新再下載. PART2, 都是有以下問題.
"郑秀文 2009_世界巡回演唱会香港站\郑秀文 2009_世界巡回演唱会香港站.part2.rar: 雜湊驗算發生錯誤於 郑秀文 2009_世界巡回演唱会香港站\郑秀文2009世界巡回演唱会香港站.mkv。
該檔已毀損"


使用道具 举报 回复 支持 反对
您需要登录后才可以回帖 登录 | 立及住厕

本版积分规则