用户
 找回密码
 立及住厕
搜索

发帖

[Blu-ray] [Blu-ray/MKV-REMUX][POP] 邓紫棋 - GEM Live世界巡迴演唱會 2013 1080p 33G

[复制链接]
发表于 2019-5-12 18:19:53
本帖最后由 tsuihosing 于 2019-5-14 05:56 编辑

邓紫棋
2013
GEM Live世界巡迴演唱會


folder.jpg


General
Format                         : Matroska
Format version                 : Version 4
File size                      : 32.4 GiB
Duration                       : 1 h 56 min
Overall bit rate mode          : Variable
Overall bit rate               : 39.7 Mb/s
Movie name                     : 邓紫棋2013GEM Live世界巡迴演唱會
Encoded date                   : UTC 2019-04-04 19:04:42
Writing application            : mkvmerge v32.0.0 ('Astral Progressions') 64-bit
Writing library                : libebml v1.3.7 + libmatroska v1.5.0

Video
ID                             : 1
Format                         : AVC
Format/Info                    : Advanced Video Codec
Format profile                 : High@L4.1
Format settings                : CABAC / 4 Ref Frames
Format settings, CABAC         : Yes
Format settings, ReFrames      : 4 frames
Format settings, GOP           : M=3, N=24
Codec ID                       : V_MPEG4/ISO/AVC
Duration                       : 1 h 56 min
Bit rate mode                  : Variable
Bit rate                       : 27.6 Mb/s
Maximum bit rate               : 30.0 Mb/s
Width                          : 1 920 pixels
Height                         : 1 080 pixels
Display aspect ratio           : 16:9
Frame rate mode                : Constant
Frame rate                     : 29.970 (30000/1001) FPS
Standard                       : NTSC
Color space                    : YUV
Chroma subsampling             : 4:2:0
Bit depth                      : 8 bits
Scan type                      : MBAFF
Scan type, store method        : Interleaved fields
Scan order                     : Top Field First
Bits/(Pixel*Frame)             : 0.443
Stream size                    : 22.5 GiB (69%)
Default                        : Yes
Forced                         : No
Color range                    : Limited
Color primaries                : BT.709
Transfer characteristics       : BT.709
Matrix coefficients            : BT.709

Audio #1
ID                             : 2
Format                         : PCM
Format settings                : Little / Signed
Codec ID                       : A_PCM/INT/LIT
Duration                       : 1 h 56 min
Bit rate mode                  : Constant
Bit rate                       : 6 912 kb/s
Channel(s)                     : 6 channels
Sampling rate                  : 48.0 kHz
Frame rate                     : 32.000 FPS (1500 SPF)
Bit depth                      : 24 bits
Stream size                    : 5.64 GiB (17%)
Language                       : Chinese
Default                        : Yes
Forced                         : No

Audio #2
ID                             : 3
Format                         : AC-3
Format/Info                    : Audio Coding 3
Commercial name                : Dolby Digital
Codec ID                       : A_AC3
Duration                       : 1 h 56 min
Bit rate mode                  : Constant
Bit rate                       : 640 kb/s
Channel(s)                     : 6 channels
Channel layout                 : L R C LFE Ls Rs
Sampling rate                  : 48.0 kHz
Frame rate                     : 31.250 FPS (1536 SPF)
Bit depth                      : 16 bits
Compression mode               : Lossy
Stream size                    : 535 MiB (2%)
Language                       : Chinese
Service kind                   : Complete Main
Default                        : No
Forced                         : No

Audio #3
ID                             : 4
Format                         : DTS XLL
Format/Info                    : Digital Theater Systems
Commercial name                : DTS-HD Master Audio
Codec ID                       : A_DTS
Duration                       : 1 h 56 min
Bit rate mode                  : Variable
Bit rate                       : 4 578 kb/s
Channel(s)                     : 6 channels
Channel layout                 : C L R Ls Rs LFE
Sampling rate                  : 48.0 kHz
Frame rate                     : 93.750 FPS (512 SPF)
Bit depth                      : 24 bits
Compression mode               : Lossless
Stream size                    : 3.74 GiB (12%)
Language                       : Chinese
Default                        : No
Forced                         : No

Menu
00:00:00.000                   : en:(01)00:00:00:000
00:01:17.544                   : en:(02)00:01:17:544
00:04:39.245                   : en:(03)00:04:39:245
00:07:58.377                   : en:(04)00:07:58:377
00:12:37.923                   : en:(05)00:12:37:923
00:17:29.681                   : en:(06)00:17:29:681
00:19:34.840                   : en:(07)00:19:34:840
00:23:47.926                   : en:(08)00:23:47:926
00:29:32.203                   : en:(09)00:29:32:203
00:34:17.321                   : en:(10)00:34:17:321
00:39:02.373                   : en:(11)00:39:02:373
00:42:10.461                   : en:(12)00:42:10:461
00:46:32.289                   : en:(13)00:46:32:289
00:49:45.983                   : en:(14)00:49:45:983
00:55:30.060                   : en:(15)00:55:30:060
00:58:48.758                   : en:(16)00:58:48:758
01:02:50.967                   : en:(17)01:02:50:967
01:07:26.876                   : en:(18)01:07:26:876
01:13:28.904                   : en:(19)01:13:28:904
01:14:43.979                   : en:(20)01:14:43:979
01:19:59.995                   : en:(21)01:19:59:995
01:23:18.793                   : en:(22)01:23:18:793
01:27:35.416                   : en:(23)01:27:35:416
01:34:23.290                   : en:(24)01:34:23:290
01:35:08.369                   : en:(25)01:35:08:369
01:38:41.315                   : en:(26)01:38:41:315
01:41:55.476                   : en:(27)01:41:55:476
01:44:07.007                   : en:(28)01:44:07:007
01:51:17.370                   : en:(29)01:51:17:370
01:56:49.135                   : en:(30)01:56:49:135



查看更多内容请登录登陆或注册


本主题所有Hires音乐和无损音乐内容均为互联网采集所得,本站仅对作品介绍展示,不直接提供下载服务。另本站音乐相关内容皆从网上搜集转载,如侵犯您的权益,请通知我们,我们将及时删除。如果你喜欢主题所述内容,请你通过正规渠道购买正版。

使用道具 举报 回复
发表于 2019-5-12 23:34:18
谢谢tsuihosing的分享!
使用道具 举报 回复 支持 反对
谢谢tsuihosing的分享!
使用道具 举报 回复 支持 反对
谢谢tsuihosing的分享!
使用道具 举报 回复 支持 反对
谢谢tsuihosing的分享!
使用道具 举报 回复 支持 反对
谢谢tsuihosing的分享!
使用道具 举报 回复 支持 反对
谢谢tsuihosing的分享!
使用道具 举报 回复 支持 反对
Thank you very much!
使用道具 举报 回复 支持 反对
谢谢tsuihosing的分享!
使用道具 举报 回复 支持 反对
谢谢tsuihosing的分享!
使用道具 举报 回复 支持 反对
谢谢tsuihosing的分享!
使用道具 举报 回复 支持 反对
谢谢tsuihosing的分享!
使用道具 举报 回复 支持 反对
发表于 5 天前
谢谢tsuihosing的分享!
使用道具 举报 回复 支持 反对
发表于 前天 06:13
曲目
01. Concert Opening [The Accident]
02. After Tonight
03. One Button
04. OH BOY
05. Someday I‘ll Fly
06. Interlude [Hallucination]
07. 泡沫
08. Get Over You
09. 你把我灌醉
10. All About U
11. 等一個他
12. 我的秘密
13. 下一秒 (我們就要死掉 )
14. Good to be Bad
15. D.R.U.M.S.
16. A.I.N.Y.
17. 不存在的存在
18. 潛意式的殘酷
19. T.A.L.K. about myself
20. 我要我們在一起
21. 失真
22. T.A.L.K. about hallelujah
23. Hallelujah
24. Interlude [Prevail]
25. WHAT HAVE U DONE
26. 想講你知
27. G.E.M.
28. Rolling in the Deep
29. Where Did U Go
使用道具 举报 回复 支持 反对
发表于 昨天 16:40
请问是原盘吗 带菜单的?
使用道具 举报 回复 支持 反对
发表于 11 小时前
谢谢tsuihosing的分享!
使用道具 举报 回复 支持 反对
发表于 1 小时前
可以提供 blu ray 1080 mkv 轉 24bit 96k 方法嗎?
使用道具 举报 回复 支持 反对
您需要登录后才可以回帖 登录 | 立及住厕

本版积分规则