用户
 找回密码
 立及住厕
搜索

发帖

[Blu-ray] [Blu-ray/MKV-REMUX][POP] 陳潔麗 - PURELY FOR YOU 2013 36G 演唱會 香港站 1080p

[复制链接]
发表于 2019-5-12 16:30:10
本帖最后由 tsuihosing 于 2019-5-12 18:10 编辑

陳潔麗
2013
PURELY FOR YOU演唱會香港站

folder.jpg


演唱会曲目介绍

01. Opening
02.「星语真情」
03.明星
04.小风波
05.求你讲清楚
06.天荒爱未老
07.情难自制
08.愿
09.明知故犯
10.小天使
11.伤信
12.非走不可/男朋友/祝君好
13.我这样爱你
14.新不了情/不了情
15. Today
16.遇见
17.不忍告别
18.征服(A Cappella)
19.明天我要嫁给你(A Cappella)
20.数你
21.忽然之间
22.世界不可怕
23.钢琴伴奏:「我的故事」
24.一水隔天涯/千言万语/亲情
25.回顾「演艺十年」心底话
26.掌声响起
27. Singing For You
28.爱的歌
29.爱的见证

General
Format                         : Matroska
Format version                 : Version 4
File size                      : 35.5 GiB
Duration                       : 2 h 14 min
Overall bit rate mode          : Variable
Overall bit rate               : 37.8 Mb/s
Encoded date                   : UTC 2019-04-04 17:38:22
Writing application            : mkvmerge v32.0.0 ('Astral Progressions') 64-bit
Writing library                : libebml v1.3.7 + libmatroska v1.5.0

Video
ID                             : 1
Format                         : AVC
Format/Info                    : Advanced Video Codec
Format profile                 : High@L4.1
Format settings                : CABAC / 4 Ref Frames
Format settings, CABAC         : Yes
Format settings, ReFrames      : 4 frames
Codec ID                       : V_MPEG4/ISO/AVC
Duration                       : 2 h 14 min
Bit rate mode                  : Variable
Bit rate                       : 27.8 Mb/s
Maximum bit rate               : 30.0 Mb/s
Width                          : 1 920 pixels
Height                         : 1 080 pixels
Display aspect ratio           : 16:9
Frame rate mode                : Constant
Frame rate                     : 29.970 (30000/1001) FPS
Standard                       : NTSC
Color space                    : YUV
Chroma subsampling             : 4:2:0
Bit depth                      : 8 bits
Scan type                      : MBAFF
Scan type, store method        : Interleaved fields
Scan order                     : Top Field First
Bits/(Pixel*Frame)             : 0.447
Stream size                    : 26.0 GiB (73%)
Default                        : Yes
Forced                         : No
Color range                    : Limited
Color primaries                : BT.709
Transfer characteristics       : BT.709
Matrix coefficients            : BT.709

Audio #1
ID                             : 2
Format                         : PCM
Format settings                : Little / Signed
Codec ID                       : A_PCM/INT/LIT
Duration                       : 2 h 14 min
Bit rate mode                  : Constant
Bit rate                       : 4 608 kb/s
Channel(s)                     : 6 channels
Sampling rate                  : 48.0 kHz
Frame rate                     : 32.000 FPS (1500 SPF)
Bit depth                      : 16 bits
Stream size                    : 4.33 GiB (12%)
Language                       : Chinese
Default                        : Yes
Forced                         : No

Audio #2
ID                             : 3
Format                         : DTS XLL
Format/Info                    : Digital Theater Systems
Commercial name                : DTS-HD Master Audio
Codec ID                       : A_DTS
Duration                       : 2 h 14 min
Bit rate mode                  : Variable
Bit rate                       : 4 444 kb/s
Channel(s)                     : 6 channels
Channel layout                 : C L R Ls Rs LFE
Sampling rate                  : 48.0 kHz
Frame rate                     : 93.750 FPS (512 SPF)
Bit depth                      : 24 bits
Compression mode               : Lossless
Stream size                    : 4.17 GiB (12%)
Language                       : Chinese
Default                        : No
Forced                         : No

Audio #3
ID                             : 4
Format                         : AC-3
Format/Info                    : Audio Coding 3
Commercial name                : Dolby Digital
Codec ID                       : A_AC3
Duration                       : 2 h 14 min
Bit rate mode                  : Constant
Bit rate                       : 640 kb/s
Channel(s)                     : 6 channels
Channel layout                 : L R C LFE Ls Rs
Sampling rate                  : 48.0 kHz
Frame rate                     : 31.250 FPS (1536 SPF)
Bit depth                      : 16 bits
Compression mode               : Lossy
Stream size                    : 615 MiB (2%)
Language                       : Chinese
Service kind                   : Complete Main
Default                        : No
Forced                         : No

Audio #4
ID                             : 5
Format                         : AC-3
Format/Info                    : Audio Coding 3
Commercial name                : Dolby Digital
Codec ID                       : A_AC3
Duration                       : 2 h 14 min
Bit rate mode                  : Constant
Bit rate                       : 384 kb/s
Channel(s)                     : 2 channels
Channel layout                 : L R
Sampling rate                  : 48.0 kHz
Frame rate                     : 31.250 FPS (1536 SPF)
Bit depth                      : 16 bits
Compression mode               : Lossy
Stream size                    : 369 MiB (1%)
Language                       : Chinese
Service kind                   : Complete Main
Default                        : No
Forced                         : No

Text
ID                             : 6
Format                         : PGS
Muxing mode                    : zlib
Codec ID                       : S_HDMV/PGS
Codec ID/Info                  : Picture based subtitle format used on BDs/HD-DVDs
Duration                       : 2 h 7 min
Bit rate                       : 14.5 kb/s
Count of elements              : 1768
Stream size                    : 13.2 MiB (0%)
Language                       : Chinese
Default                        : No
Forced                         : No

查看更多内容请登录登陆或注册


本主题所有Hires音乐和无损音乐内容均为互联网采集所得,本站仅对作品介绍展示,不直接提供下载服务。另本站音乐相关内容皆从网上搜集转载,如侵犯您的权益,请通知我们,我们将及时删除。如果你喜欢主题所述内容,请你通过正规渠道购买正版。


使用道具 举报 回复
发表于 2019-5-12 19:19:43
谢谢tsuihosing的分享!
使用道具 举报 回复 支持 反对
发表于 2019-5-12 23:26:21
谢谢tsuihosing的分享!
使用道具 举报 回复 支持 反对
发表于 7 天前
谢谢楼主分享
使用道具 举报 回复 支持 反对
谢谢楼主分享
使用道具 举报 回复 支持 反对
谢谢tsuihosing的分享!
使用道具 举报 回复 支持 反对
谢谢tsuihosing的分享!
使用道具 举报 回复 支持 反对
谢谢tsuihosing的分享!
使用道具 举报 回复 支持 反对
发表于 7 天前
喜欢陳潔丽, 謝謝楼主分享!
使用道具 举报 回复 支持 反对
发表于 7 天前
谢谢tsuihosing的分享!
使用道具 举报 回复 支持 反对
谢谢tsuihosing的分享!
使用道具 举报 回复 支持 反对
谢谢tsuihosing的分享!
使用道具 举报 回复 支持 反对
发表于 7 天前
谢谢了!要是ISO原盘的就更好了!
使用道具 举报 回复 支持 反对
谢谢tsuihosing的分享!
使用道具 举报 回复 支持 反对
谢谢tsuihosing的分享!
使用道具 举报 回复 支持 反对
谢谢tsuihosing的分享!
使用道具 举报 回复 支持 反对
谢谢tsuihosing的分享!
使用道具 举报 回复 支持 反对
谢谢tsuihosing的分享!
使用道具 举报 回复 支持 反对
谢谢tsuihosing的分享!
使用道具 举报 回复 支持 反对
谢谢tsuihosing的分享!
使用道具 举报 回复 支持 反对
谢谢tsuihosing的分享!
使用道具 举报 回复 支持 反对
谢谢tsuihosing的分享!
使用道具 举报 回复 支持 反对
谢谢tsuihosing的分享!
使用道具 举报 回复 支持 反对
谢谢tsuihosing的分享!
使用道具 举报 回复 支持 反对
发表于 昨天 16:04
谢谢tsuihosing的分享!
使用道具 举报 回复 支持 反对
发表于 昨天 16:48
谢谢tsuihosing的分享!
使用道具 举报 回复 支持 反对
您需要登录后才可以回帖 登录 | 立及住厕

本版积分规则