用户
 找回密码
 立及住厕
搜索

发帖

[16Bit] [禁转][WAV][POP] 童丽 - 不了情 1:1母盘直刻版 2018 16bit

[复制链接]

26

主题

41

贡献

227

帖子

团购会员

积分
201
发表于 2019-3-10 00:22:05
封面:
cover.jpg

简介:
童丽《不了情》
往事如烟,挥而不去。生命里埋藏着太多的定数,在未料终始的时候就已经摆好了局。童丽《不了情》,忘不了的是旧日的情怀。
有些人,在记忆中,难以替代。
有种歌声,在岁月中,无法忘却。
人生若只如初见,何事秋风悲画扇。
生命里埋藏着太多的定数,在未曾预料的时候就已经摆好了局。
听童丽的歌,让疲倦了的心停一停。
无论所走过的路,
是苦,还是甘甜。
专辑特色
1、国语专辑·精准定位
继童丽《国语十大金曲》后,童丽国语专辑《不了情》上市!精准的乐器定位,恰到好处的乐器编排,后期采用DXD式调音制版,再加上让发烧友一听难忘的甜美柔情的歌声,童丽的这张新专辑,可谓是精良作品。
专业人士评价:这张《不了情》专辑不论是配器还是人声都非常的和谐,让人听起来觉得非常的舒服,更加的真实,也非常的耐听。
专辑《不了情》作为一张国语专辑,其选曲大多是20世纪30-70年代的歌曲,带有一定的年代感。但是新的编配,让专辑里的歌曲又沾上了现代的气息。优雅的钢琴、流行的吉他,都让这些歌沾染了新时代的气息,反复地听,能听出不同的韵味来。

2、发烧人声·经典耐听
说到童丽,发烧友们都比较喜欢她的“气声”唱法。这在童丽的演唱中,着重表现在她演唱的句末。在句末,根据歌曲的情感发展,她会把气声与音乐结合起来,从而达到一种音乐与人声和谐的状态,而她的这种唱法,也深受发烧友们的喜爱。
《不了情》这张专辑中,在做后期的时候,特意抓住了童丽的“气声”特点,从而使得每一首歌曲听起来都缠绵不已,尤其是专辑同名歌曲《不了情》,里面的配器仅是一把钢琴,但这把钢琴与人声结合起来,不会觉得这首歌过于简单,而是会觉得这首歌非常的耐听,有韵味。因为这首歌,后期细节处理把童丽的“气声”处理的非常干净,与钢琴声结合,能清楚地听到童丽的每一个呼吸气口,童丽的唱功,在这首歌里突显无疑。《不了情》这首歌,无论是内容,还是曲调,都与童丽的形象非常的符合。

2、港陆合作·DXD调音制版
前面提到的“后期”制作:
这张《不了情》,是天艺唱片与香港风行首次合作,共同打造出来的一张唱片。担任这张专辑的制作人:夏宇老师。夏宇老师在制作的时候,坚持着让童丽发出自然的声音来进行编配。所以专辑中的配器都比较简单,注重人声。所以整张专辑听起来,就能让人注意听到童丽的唱歌特点——“气声”唱法。而经过佩里·马丁(英国)的混音,香港的黎承昌黎先生的调音,使得专辑《不了情》越趋完美。而且这次的调音制版,采用DXD的调音制版格式。
DXD是PCM信号的高级模式,码率为352khz/24bit,是pcm格式里高级的码率格式,音质也是当中棒棒的。

无损音乐曲目:
1.不了情 ISRC CN-Z35-17-01647 3:51
2.凤凰于飞 ISRC CN-Z35-17-01648 3:49
3.天空 ISRC CN-Z35-17-01646 4:32
4.天涯歌女 ISRC CN-Z35-17-01645 4:15
5.红豆 ISRC CN-Z35-17-01644 4:31
6.往事只能回味 ISRC CN-Z35-17-01643 4:12
7.明月千里寄相思 ISRC CN-Z35-17-01642 3:43
8.城里的月光 ISRC CN-Z35-17-01641 4:53
9.小楼昨夜又东风 ISRC CN-Z35-17-01640 4:21
10.爱的代价 ISRC CN-Z35-17-01649 4:27
11.清平调 ISRC CN-Z35-17-01639 4:28
12.绿岛小夜曲 ISRC CN-Z35-17-01638 3:30

获取本隐藏内容需支付25新币 支付


本主题所有hirs音乐和无损音乐内容均为互联网采集所得,本站仅对作品介绍展示,不直接提供下载服务。另本站音乐相关内容皆从网上搜集转载,如侵犯您的权益,请通知我们,我们将及时删除。如果你喜欢主题所述内容,请你通过正规渠道购买正版。
使用道具 举报 回复
Exact Audio Copy V1.3 from 2. September 2016

EAC 抓取日志文件从5. 三月 2019, 1:12

童丽 / 不了情 1:1母盘直刻CD

使用驱动器  :YAMAHA  CRW-F1E   Adapter: 1  ID: 0

读取模式      : 可靠Secure
使用精确流     : 是
清空音频缓存    : 是
使用 C2 指示器 : 否

读取偏移校正:               : 733
读取 Lead-In 和 Lead-Out : 否
用静音填充抓取中丢失偏移的采样       : 是
去除首尾静音块               : 否
在CRC 计算中使用了空样本       : 是
已用接口                  : Win NT 及 2000 本地 Win32 接口

所用输出模式: : 内部 WAV 函数
样本格式    : 44.100 Hz; 16 Bit; 立体声


已抓取 CD 的 TOC

     音轨 |    起始    |    长度    |  起始扇区  |  结束扇区  
    --------------------------------------------
      1 |  0:00.00 |  3:47.39 |      0 |  17063
      2 |  3:47.39 |  3:48.62 |  17064 |  34225
      3 |  7:36.26 |  4:30.06 |  34226 |  54481
      4 | 12:06.32 |  4:13.07 |  54482 |  73463
      5 | 16:19.39 |  4:28.51 |  73464 |  93614
      6 | 20:48.15 |  4:12.21 |  93615 | 112535
      7 | 25:00.36 |  3:38.28 | 112536 | 128913
      8 | 28:38.64 |  4:51.21 | 128914 | 150759
      9 | 33:30.10 |  4:21.23 | 150760 | 170357
     10 | 37:51.33 |  4:26.26 | 170358 | 190333
     11 | 42:17.59 |  4:25.72 | 190334 | 210280
     12 | 46:43.56 |  3:28.15 | 210281 | 225895


范围状态及错误

已选择范围

     文件名 C:\Users\Administrator\Desktop\童丽 - 不了情 母盘直刻CD.wav

     峰值电平 98.5 %
     抓取速度 8.0 X
     范围质量 99.9 %
     复制 CRC 8AD5372E
     复制成功

没有错误发生
使用道具 举报 回复 支持 反对
发表于 2019-3-10 01:48:45
谢谢东木小子的分享!
使用道具 举报 回复 支持 反对
发表于 2019-3-10 06:30:01
谢谢东木小子的分享!
使用道具 举报 回复 支持 反对
发表于 2019-3-10 07:33:13
谢谢东木小子的分享!
使用道具 举报 回复 支持 反对
发表于 2019-3-10 07:57:40
谢谢东木小子的分享!
使用道具 举报 回复 支持 反对
发表于 2019-3-10 08:08:24
谢谢东木小子的分享!
使用道具 举报 回复 支持 反对
发表于 2019-3-10 09:10:06
谢谢东木小子的分享!
使用道具 举报 回复 支持 反对
发表于 2019-3-10 09:37:42
谢谢东木小子的分享!
使用道具 举报 回复 支持 反对
发表于 2019-3-10 10:17:02
谢谢东木小子的分享!
使用道具 举报 回复 支持 反对
发表于 2019-3-10 10:19:55
谢谢东木小子的分享!
使用道具 举报 回复 支持 反对
发表于 2019-3-10 10:59:06
thanks for sharing
使用道具 举报 回复 支持 反对
发表于 2019-3-10 11:49:11
谢谢东木小子的分享!
使用道具 举报 回复 支持 反对
发表于 2019-3-10 12:38:37
是16bit,不是352khz/24bit阿
使用道具 举报 回复 支持 反对
发表于 2019-3-10 13:28:20
谢谢东木小子的分享!
使用道具 举报 回复 支持 反对
发表于 2019-3-10 13:37:37
谢谢东木小子的分享!
使用道具 举报 回复 支持 反对
发表于 2019-3-10 13:58:44
谢谢东木小子的分享!
使用道具 举报 回复 支持 反对
发表于 2019-3-10 15:29:24
谢谢东木小子的分享!
使用道具 举报 回复 支持 反对
发表于 2019-3-10 16:38:00
谢谢东木小子的分享!
使用道具 举报 回复 支持 反对
发表于 2019-3-10 17:06:36
谢谢东木小子的分享!
使用道具 举报 回复 支持 反对
发表于 2019-3-10 17:17:55
谢谢东木小子的分享!
使用道具 举报 回复 支持 反对
发表于 2019-3-10 17:38:56
谢谢东木小子的分享!
使用道具 举报 回复 支持 反对
发表于 2019-3-10 17:47:35
谢谢东木小子的分享!
使用道具 举报 回复 支持 反对
发表于 2019-3-10 18:10:24
谢谢东木小子的分享!
使用道具 举报 回复 支持 反对
发表于 2019-3-10 19:24:05
谢谢东木小子的分享!
使用道具 举报 回复 支持 反对
发表于 2019-3-10 20:38:39
谢谢东木小子的分享!
使用道具 举报 回复 支持 反对
发表于 2019-3-10 23:22:29
楼主分享的原抓品质真的很出色~感谢分享
使用道具 举报 回复 支持 反对
发表于 2019-3-10 23:22:40
谢谢东木小子的分享!
使用道具 举报 回复 支持 反对
发表于 2019-3-10 23:27:55
谢谢东木小子的分享!
使用道具 举报 回复 支持 反对
发表于 2019-3-11 02:30:53
谢谢东木小子的分享!
使用道具 举报 回复 支持 反对
您需要登录后才可以回帖 登录 | 立及住厕

本版积分规则