用户
 找回密码
 立及住厕
搜索

发帖

[16Bit] [禁转][WAV][POP] Hugh Masekela - Hope 希望/小喇叭 1994 名盘推荐

[复制链接]

26

主题

41

贡献

227

帖子

团购会员

积分
201
发表于 2019-3-10 00:17:12


cover.jpg

HiRes音乐简介:
专辑名称:(Hope) 希望  

表演:Hugh Masekela

编号:TRICD82020

唱片公司:信昌


Hugh Masekela的歌声带着浓厚的黑人情愫,
他吹奏的小喇叭除了极佳的技巧操控,
对于情感的描绘也是一流的!
本片是长期发烧的示范天碟!片中的乐器所表现出来的音频美感绝对能完全测试你的音响器
材,不论高,中低音的表现都非常到位.特别是黑人声底加上小喇叭的配合,气势磅礡.而且连
德国Burnmester的发烧测试唱片的第三集(柏林之音)中也收录其中一首歌曲,这便可知这张唱片的发烧程度!

曲目:
1.Abangoma (The Healers)
2.Uptownship
3.Mandela (Bring Him Back Home!)
4.Grazin In The Grass
5.Lady
6.Until When
7.Languta
8.Nomali
9.Marketplace
10.Ntyilo Ntyilo (The Love Bird)
11.Ha Le Se (The Dowry Song)
12.Stimela (The Coal Train)

获取本隐藏内容需支付15新币 支付



本主题所有无损音乐内容均为互联网采集所得,本站仅对作品介绍展示,不直接提供下载服务。另本站音乐相关内容皆从网上搜集转载,如侵犯您的权益,请通知我们,我们将及时删除。如果你喜欢主题所述内容,请你通过正规渠道购买正版。
使用道具 举报 回复
Exact Audio Copy V1.3 from 2. September 2016

EAC 抓取日志文件从8. 三月 2019, 23:16

Hugh Masekela / Hope

使用驱动器  :YAMAHA  CRW-F1E   Adapter: 1  ID: 0

读取模式      : 可靠Secure
使用精确流     : 是
清空音频缓存    : 是
使用 C2 指示器 : 否

读取偏移校正:               : 733
读取 Lead-In 和 Lead-Out : 否
用静音填充抓取中丢失偏移的采样       : 是
去除首尾静音块               : 否
在CRC 计算中使用了空样本       : 是
已用接口                  : Win NT 及 2000 本地 Win32 接口

所用输出模式: : 内部 WAV 函数
样本格式    : 44.100 Hz; 16 Bit; 立体声


已抓取 CD 的 TOC

     音轨 |    起始    |    长度    |  起始扇区  |  结束扇区  
    --------------------------------------------
      1 |  0:00.00 |  5:02.52 |      0 |  22701
      2 |  5:02.52 |  4:53.45 |  22702 |  44721
      3 |  9:56.22 |  5:12.00 |  44722 |  68121
      4 | 15:08.22 |  3:30.23 |  68122 |  83894
      5 | 18:38.45 |  7:02.27 |  83895 | 115571
      6 | 25:40.72 |  4:11.08 | 115572 | 134404
      7 | 29:52.05 |  8:07.30 | 134405 | 170959
      8 | 37:59.35 |  8:58.17 | 170960 | 211326
      9 | 46:57.52 |  5:31.03 | 211327 | 236154
     10 | 52:28.55 |  5:57.57 | 236155 | 262986
     11 | 58:26.37 |  5:41.10 | 262987 | 288571
     12 | 64:07.47 | 10:00.38 | 288572 | 333609


范围状态及错误

已选择范围

     文件名 C:\Users\Administrator\Desktop\Hugh Masekela - Hope.wav

     峰值电平 100.0 %
     抓取速度 5.0 X
     范围质量 99.9 %
     复制 CRC 8B67F25F
     复制成功

没有错误发生
使用道具 举报 回复 支持 反对
发表于 2019-3-10 01:35:40
楼主很有品味呀,赞
使用道具 举报 回复 支持 反对
发表于 2019-3-10 07:09:11
谢谢东木小子的分享!
使用道具 举报 回复 支持 反对
发表于 2019-3-10 08:25:55
谢谢东木小子的分享!
使用道具 举报 回复 支持 反对
发表于 2019-3-10 09:11:17
谢谢东木小子的分享!
使用道具 举报 回复 支持 反对
发表于 2019-3-10 10:06:20
谢谢东木小子的分享!
使用道具 举报 回复 支持 反对
发表于 2019-3-10 11:01:25
谢谢东木小子的分享!
使用道具 举报 回复 支持 反对
发表于 2019-3-10 11:44:48
谢谢东木小子的分享!
使用道具 举报 回复 支持 反对
发表于 2019-3-10 13:04:53
谢谢东木小子的分享!
使用道具 举报 回复 支持 反对
发表于 2019-3-10 16:47:01
谢谢东木小子的分享!
使用道具 举报 回复 支持 反对
发表于 2019-3-10 17:09:30
谢谢东木小子的分享!
使用道具 举报 回复 支持 反对
发表于 2019-3-11 11:12:06
谢谢东木小子的分享!
使用道具 举报 回复 支持 反对
发表于 2019-3-15 10:46:31
谢谢东木小子的分享!
使用道具 举报 回复 支持 反对
您需要登录后才可以回帖 登录 | 立及住厕

本版积分规则