用户
 找回密码
 立及住厕
搜索

发帖

[16Bit] [禁转][WAV][Instrumental] The Bass Gang - Evasioni & Fughe 鬼马牛筋 2003 名盘推荐

[复制链接]

26

主题

41

贡献

229

帖子

团购会员

积分
201
发表于 2019-3-10 00:12:32
封面:
cover.jpg

HiRes音乐简介:
NBB NBB11 发烧低音大牛筋鬼马四人帮The Bass Gang Evasioni & Fughe
意大利牛筋四人组乐团 低音大提琴 重奏
音响性十足!音乐趣味发烧满点

当一出声的低弦声,将使你的耳朵为之一震,因为音响性十足,音乐趣味满点!四只低音大提琴的声响低沈而有力稳重,和弦漂亮,创意新感!低音大提琴在古典乐与爵士音乐中都有很重要的地位,而以前均以伴奏为多,近年来许多音乐家为低音大提琴作了一些古典曲为主,并渐渐热络,本片的演奏真是发烧而优美,将是音响迷与音乐迷们的最爱,共十七首老少咸宜的古典及流行加音响效果满分的四只低音大提琴的演奏曲集,曲曲都是非常精彩,真是值得保存的低音大提琴发烧经典藏宝音乐! 拉奏的意大利四位低音大提琴家,刚开始在夜总会演出,然后在音乐厅,后来更和交响乐团合作。并在欧洲各地演出,获得很多佳评。另有专辑;NBB-14 La Contrabbassata 低音牛筋鬼马四人帮发烧天碟

曲目:
1 THE VOLGA BOATMAN
- by Glen Miller
2 BLACK CAT WHITE CAT
- by N.Karajlic-V.Aralica-D.Sparavaio from film by E.Kusturica
3-4 CONTRABAJISSIMO Cadenza & Tango
- by A.Piazzolla
5 AKATOMBO
- by K.Yamada Japanese song
6 PULP BASS or BASS FICTION?
- Miserlou by Roubanis-Wise-Leeds-Russell
theme from film "Pulp Fiction" by Q.Tarantino
7-8 CONTRABAJEANDO 4 Intro & Tango
- by A.Piazzolla & A.Troilo
9 BIRDLAND
- by J.Zawinul
10 A WHITER SHADE of ... BACH
- Medley : Air from Orchestral Suite Nr3 by J.S.Bach &
A Whiter Shade of Pale by K.Reid-G.Brooker
11 SLAP THAT BASS
- by G.Gershwin
12 HARD HEADED WOMAN
- by Demetruis an Elvis Presley's Rock and Roll
13 O SOLE MIO
- by Capuzzo - Di Capua
14 LONG VEHICLE
- by N.Karajlic-V.Aralica-D.Sparavaio
Bonus Traks :
Played whith ALTER EGO upright Double Basses
15 FUNERAL MARCH OF A MARIONETTE
- by C.Gounod
16 JUMP
- by L.Bernstain
17 HARD HEADED WOMAN
- by Demetruis

获取本隐藏内容需支付15新币 支付



本主题所有无损音乐内容均为互联网采集所得,本站仅对作品介绍展示,不直接提供下载服务。另本站音乐相关内容皆从网上搜集转载,如侵犯您的权益,请通知我们,我们将及时删除。如果你喜欢主题所述内容,请你通过正规渠道购买正版。
使用道具 举报 回复
Exact Audio Copy V1.3 from 2. September 2016

EAC 抓取日志文件从8. 三月 2019, 22:53

The Bass Gang / Evasioni & Fughe

使用驱动器  :YAMAHA  CRW-F1E   Adapter: 1  ID: 0

读取模式      : 可靠Secure
使用精确流     : 是
清空音频缓存    : 是
使用 C2 指示器 : 否

读取偏移校正:               : 733
读取 Lead-In 和 Lead-Out : 否
用静音填充抓取中丢失偏移的采样       : 是
去除首尾静音块               : 否
在CRC 计算中使用了空样本       : 是
已用接口                  : Win NT 及 2000 本地 Win32 接口

所用输出模式: : 内部 WAV 函数
样本格式    : 44.100 Hz; 16 Bit; 立体声


已抓取 CD 的 TOC

     音轨 |    起始    |    长度    |  起始扇区  |  结束扇区  
    --------------------------------------------
      1 |  0:00.00 |  3:00.68 |      0 |  13567
      2 |  3:00.68 |  3:09.25 |  13568 |  27767
      3 |  6:10.18 |  3:21.61 |  27768 |  42903
      4 |  9:32.04 |  8:37.27 |  42904 |  81705
      5 | 18:09.31 |  3:31.44 |  81706 |  97574
      6 | 21:41.00 |  2:24.10 |  97575 | 108384
      7 | 24:05.10 |  1:39.32 | 108385 | 115841
      8 | 25:44.42 |  5:43.37 | 115842 | 141603
      9 | 31:28.04 |  5:19.59 | 141604 | 165587
     10 | 36:47.63 |  4:08.09 | 165588 | 184196
     11 | 40:55.72 |  3:04.40 | 184197 | 198036
     12 | 44:00.37 |  1:55.58 | 198037 | 206719
     13 | 45:56.20 |  2:22.11 | 206720 | 217380
     14 | 48:18.31 |  4:19.50 | 217381 | 236855
     15 | 52:38.06 |  2:34.70 | 236856 | 248475
     16 | 55:13.01 |  0:49.23 | 248476 | 252173
     17 | 56:02.24 |  1:18.71 | 252174 | 258094
     18 | 57:21.20 |  0:43.55 | 258095 | 261374
     19 | 60:37.00 |  2:44.54 | 272775 | 285128


范围状态及错误

已选择范围

     文件名 C:\Users\Administrator\Desktop\The Bass Gang - Evasioni & Fughe.wav

     峰值电平 96.6 %
     抓取速度 4.7 X
     范围质量 99.9 %
     复制 CRC 35E99004
     复制成功

没有错误发生
使用道具 举报 回复 支持 反对
发表于 2019-3-10 07:06:34
谢谢东木小子的分享!
使用道具 举报 回复 支持 反对
发表于 2019-3-10 09:12:30
谢谢东木小子的分享!
使用道具 举报 回复 支持 反对
发表于 2019-3-10 10:01:50
谢谢东木小子的分享!
使用道具 举报 回复 支持 反对
发表于 2019-3-10 10:58:16
谢谢东木小子的分享!
使用道具 举报 回复 支持 反对
发表于 2019-3-10 11:01:00
谢谢东木小子的分享!
使用道具 举报 回复 支持 反对
发表于 2019-3-10 11:46:54
谢谢东木小子的分享!
使用道具 举报 回复 支持 反对
发表于 2019-3-10 14:30:23
谢谢东木小子的分享!
使用道具 举报 回复 支持 反对
发表于 2019-3-10 14:48:40
谢谢东木小子的分享!
使用道具 举报 回复 支持 反对
发表于 2019-3-10 14:56:26
谢谢东木小子的分享!
使用道具 举报 回复 支持 反对
发表于 2019-3-10 17:40:14
谢谢东木小子的分享!
使用道具 举报 回复 支持 反对
发表于 2019-3-10 23:29:41
谢谢东木小子的分享!
使用道具 举报 回复 支持 反对
发表于 2019-3-11 12:28:04
谢谢东木小子的分享!
使用道具 举报 回复 支持 反对
发表于 2019-3-11 12:29:13
谢谢东木小子的分享!
使用道具 举报 回复 支持 反对
发表于 2019-3-13 17:41:47
谢谢东木小子的分享!
使用道具 举报 回复 支持 反对
发表于 2019-3-18 00:44:08
谢谢东木小子的分享!
使用道具 举报 回复 支持 反对
您需要登录后才可以回帖 登录 | 立及住厕

本版积分规则