用户
 找回密码
 立及住厕
搜索

发帖

[16Bit] [禁转][WAV][Sampler] 老虎鱼 Stockfisch Reference 黄金标准 24K GOLD CD 2018 16bit

[复制链接]
发表于 2019-3-10 00:05:09
封面:
cover.jpg

Hires音乐简介:
老虎鱼 SRM047GCD 黄金标准Stockfisch Reference 示范名盘 24K金碟CD
錄音界巨擘「老虎魚」新專輯 ?黃金標準Stockfisch Reference?
收錄了旗下15位歌手和樂團具代表性的專輯主題歌曲
音場和音效臻***完***美,24K GOLD CD 精雕細琢的示範名盤   
8月9日 发行!
Catalogue no. : SRM047GCD
Title :「老虎魚」:黃金標準Stockfisch Reference
Performer : Various
Format : 24K GOLD CD
Selling point :
1. 錄音界巨擘「老虎魚」以顯赫的專業錄音技術,精挑擁有優美聲線的歌手和音樂造詣極高的唱作人、樂隊和樂團合作而在樂壇奠定崇高地位,他們製作的每一個專輯多具備個別特色、風格與吸引力,展現聲音的ZUI美境界,不少「發燒」樂迷對其錄音製作趨之若鶩。
2. 新專輯?「老虎魚」:黃金標準(Stockfisch Reference)?收錄了旗下不同時期的十五位歌手和樂團具代表性的專輯主題歌曲,亦是他們與廠牌的標誌性錄音製作,無論是音樂藝術或是音效技術皆是上乘之作,欣賞價值高。
3. 被挑選的每一首歌曲包括民謠、情歌、爵士樂和古典樂,各具特色,雖然風格?4?7異,但所有樂曲皆能將來自四方八面的音響源、音樂和歌聲的位置和種類清清楚楚地展現。樂曲本身的旋律優美流暢,加上歌手與樂手門出色的表現,此専輯除了可用作測試音響系統各種不同的作用和能力表現外,亦是欣賞美樂的ZUI佳選擇之一。
4. 專輯以在日本製造的24K金CD為載體,歌聲與樂器聲顯得更為純淨自然,音質渾厚清晰,音色、音場和音效更***臻***完***美,是精雕細琢的示範名盤。



曲目:
Tracklisting :
1.Carrie Newcomer / The Slender Thread
2.Brian Flanagan / Where Dreams Are Made
3.Steve Strauss / Sea of Dream
4.McKinley Black / Beggars, Fools and Thieves
5.David Munyon / Pretty Blue
6.Allan Taylor / Down the Years I Travelled
7.David Roth / Will You Come Home
8.Brooke Miller / Familiar (Piano Version)
9.Chris Jones / Roadhouse & Automobiles
10.Sara K. / Made In the Shade
11.Kerstin Blodig / Out Of The Woods (Impro)
12.Paul Stephenson / Girl With A Mirror
13.Carl Cleves & Parissa Bouas / Halos ‘Round The Moon
14. The Spirit of GAMBO / The Silver Swan

查看更多内容请登录登陆或注册



本主题所有无损音乐内容均为互联网采集所得,本站仅对作品介绍展示,不直接提供下载服务。另本站音乐相关内容皆从网上搜集转载,如侵犯您的权益,请通知我们,我们将及时删除。如果你喜欢主题所述内容,请你通过正规渠道购买正版。
使用道具 举报 回复
Exact Audio Copy V1.3 from 2. September 2016

EAC 抓取日志文件从8. 三月 2019, 23:42

Various Artists / Stockfish Reference

使用驱动器  :YAMAHA  CRW-F1E   Adapter: 1  ID: 0

读取模式      : 可靠Secure
使用精确流     : 是
清空音频缓存    : 是
使用 C2 指示器 : 否

读取偏移校正:               : 733
读取 Lead-In 和 Lead-Out : 否
用静音填充抓取中丢失偏移的采样       : 是
去除首尾静音块               : 否
在CRC 计算中使用了空样本       : 是
已用接口                  : Win NT 及 2000 本地 Win32 接口

所用输出模式: : 内部 WAV 函数
样本格式    : 44.100 Hz; 16 Bit; 立体声


已抓取 CD 的 TOC

     音轨 |    起始    |    长度    |  起始扇区  |  结束扇区  
    --------------------------------------------
      1 |  0:00.00 |  3:34.12 |      0 |  16061
      2 |  3:34.12 |  4:13.00 |  16062 |  35036
      3 |  7:47.12 |  3:31.67 |  35037 |  50928
      4 | 11:19.04 |  3:10.46 |  50929 |  65224
      5 | 14:29.50 |  4:10.19 |  65225 |  83993
      6 | 18:39.69 |  4:03.21 |  83994 | 102239
      7 | 22:43.15 |  3:58.67 | 102240 | 120156
      8 | 26:42.07 |  3:53.07 | 120157 | 137638
      9 | 30:35.14 |  6:27.71 | 137639 | 166734
     10 | 37:03.10 |  3:54.35 | 166735 | 184319
     11 | 40:57.45 |  4:31.28 | 184320 | 204672
     12 | 45:28.73 |  4:09.25 | 204673 | 223372
     13 | 49:38.23 |  3:33.62 | 223373 | 239409
     14 | 53:12.10 |  3:45.41 | 239410 | 256325
     15 | 56:57.51 |  3:16.24 | 256326 | 271049


范围状态及错误

已选择范围

     文件名 C:\Users\Administrator\Desktop\Various Artists - Stockfish Reference.wav

     峰值电平 94.4 %
     抓取速度 4.9 X
     范围质量 100.0 %
     复制 CRC 9AC09783
     复制成功

没有错误发生
使用道具 举报 回复 支持 反对
发表于 2019-3-10 01:22:27
谢谢东木小子的分享!
使用道具 举报 回复 支持 反对
发表于 2019-3-10 05:50:14
谢谢东木小子的分享!
使用道具 举报 回复 支持 反对
发表于 2019-3-10 07:08:07
谢谢东木小子的分享!
使用道具 举报 回复 支持 反对
发表于 2019-3-10 09:08:54
谢谢东木小子的分享!
使用道具 举报 回复 支持 反对
发表于 2019-3-10 09:13:29
谢谢东木小子的分享!
使用道具 举报 回复 支持 反对
发表于 2019-3-10 10:04:26
谢谢东木小子的分享!
使用道具 举报 回复 支持 反对
发表于 2019-3-10 10:06:36
谢谢东木小子的分享!
使用道具 举报 回复 支持 反对
发表于 2019-3-10 10:55:58
谢谢东木小子的分享!
使用道具 举报 回复 支持 反对
发表于 2019-3-10 10:58:20
谢谢东木小子的分享!
使用道具 举报 回复 支持 反对
发表于 2019-3-10 11:25:33
谢谢东木小子的分享!
使用道具 举报 回复 支持 反对
发表于 2019-3-10 12:32:52
谢谢东木小子的分享!
使用道具 举报 回复 支持 反对
发表于 2019-3-10 13:03:05
谢谢东木小子的分享!
使用道具 举报 回复 支持 反对
发表于 2019-3-10 16:44:34
谢谢东木小子的分享!
使用道具 举报 回复 支持 反对
发表于 2019-3-10 17:28:07
谢谢东木小子的分享!
使用道具 举报 回复 支持 反对
发表于 2019-3-10 17:43:36
谢谢东木小子的分享!
使用道具 举报 回复 支持 反对
发表于 2019-3-10 20:41:00
谢谢东木小子的分享!
使用道具 举报 回复 支持 反对
发表于 2019-3-10 23:35:30
谢谢东木小子的分享!
使用道具 举报 回复 支持 反对
发表于 2019-3-11 10:27:59
谢谢楼主分享
使用道具 举报 回复 支持 反对
发表于 2019-3-11 10:28:09
谢谢东木小子的分享!
使用道具 举报 回复 支持 反对
发表于 2019-3-11 12:34:58
谢谢东木小子的分享!
使用道具 举报 回复 支持 反对
发表于 2019-3-11 18:43:43
谢谢东木小子的分享!
使用道具 举报 回复 支持 反对
发表于 2019-3-11 20:19:34
谢谢东木小子的分享!
使用道具 举报 回复 支持 反对
发表于 2019-3-12 02:56:35
谢谢东木小子的分享!
使用道具 举报 回复 支持 反对
发表于 2019-3-12 06:51:19
谢谢东木小子的分享!
使用道具 举报 回复 支持 反对
发表于 2019-3-12 16:05:27
谢谢东木小子的分享!
使用道具 举报 回复 支持 反对
发表于 2019-3-13 02:38:30
谢谢东木小子的分享!
使用道具 举报 回复 支持 反对
发表于 2019-3-13 17:17:55
谢谢东木小子的分享!
使用道具 举报 回复 支持 反对
发表于 2019-3-14 20:29:24
谢谢东木小子的分享!
使用道具 举报 回复 支持 反对
您需要登录后才可以回帖 登录 | 立及住厕

本版积分规则