用户
 找回密码
 立及住厕
搜索

发帖

[24Bit_32Bit] [FLAC][CLASSICAL] Bruno Philippe and Jérôme Ducros - Sonatas for Cello and Piano 2019 24bit/96khz

[复制链接]

2

主题

2

贡献

11

帖子

团购会员

积分
12
发表于 2019-2-9 22:46:55
本帖最后由 xyforange 于 2019-2-9 22:49 编辑

封面:
front.jpg


简介:

Bruno Philippe, violoncelle Tononi (Prêté par la Beare’s International Violin Society)   
Jérôme Ducros, piano Steinway
2019-02-08_230743.jpg



hires音乐资源的曲目:
DR         Peak         RMS     Duration Track
--------------------------------------------------------------------------------
DR13      -2.21 dB   -21.63 dB      7:11 01-Cello Sonata No. 1 in D Major, Op. 12: I. Adagio - Andante
DR13      -2.54 dB   -20.97 dB     12:13 02-Cello Sonata No. 1 in D Major, Op. 12: II. Allegro passionato
DR11      -6.71 dB   -23.07 dB      3:40 03-2 Pieces, Op. 2: I. Prélude in F Major. Commodo
DR13      -5.37 dB   -24.14 dB      5:26 04-2 Pieces, Op. 2: II. Danse orientale in A Minor. Andante cantabile
DR12      -1.46 dB   -19.88 dB      4:38 05-5 Morceaux de fantaisie, Op. 3: II. Prélude in C-Sharp Minor. Lento
DR15      -1.35 dB   -21.39 dB     13:55 06-Cello Sonata in G Minor, Op. 19: I. Lento - Allegro moderato
DR14      -2.58 dB   -21.04 dB      6:35 07-Cello Sonata In G Minor, Op. 19: II. Allegro scherzando
DR14      -3.62 dB   -22.58 dB      5:55 08-Cello Sonata in G Minor, Op. 19: III. Andante
DR13      -1.54 dB   -20.21 dB     11:19 09-Cello Sonata In G Minor, Op. 19: IV. Allegro mosso
--------------------------------------------------------------------------------

获取本隐藏内容需支付5新币 支付


本主题所有hires音乐和无损音乐内容均为互联网采集所得,本站仅对作品介绍展示,不直接提供下载服务。另本站音乐相关内容皆从网上搜集转载,如侵犯您的权益,请通知我们,我们将及时删除。如果你喜欢主题所述内容,请你通过正规渠道购买正版。
使用道具 举报 回复
发表于 2019-2-10 05:10:41
谢谢xyforange的分享!
使用道具 举报 回复 支持 反对
发表于 2019-2-10 07:00:47
谢谢xyforange的分享!
使用道具 举报 回复 支持 反对
发表于 2019-2-10 09:02:00
谢谢xyforange的分享!
使用道具 举报 回复 支持 反对
发表于 2019-2-10 09:03:51
谢谢xyforange的分享!
使用道具 举报 回复 支持 反对
发表于 2019-2-10 09:06:23
谢谢xyforange的分享!
使用道具 举报 回复 支持 反对
发表于 2019-2-10 09:44:40
谢谢xyforange的分享!
使用道具 举报 回复 支持 反对
发表于 2019-2-10 09:49:48
谢谢xyforange的分享!
使用道具 举报 回复 支持 反对
发表于 2019-2-10 12:28:55
谢谢xyforange的分享!
使用道具 举报 回复 支持 反对
发表于 2019-2-10 21:53:30
谢谢xyforange的分享!
使用道具 举报 回复 支持 反对
谢谢xyforange的分享!
使用道具 举报 回复 支持 反对
发表于 4 天前
谢谢xyforange的分享!
使用道具 举报 回复 支持 反对
您需要登录后才可以回帖 登录 | 立及住厕

本版积分规则