用户
 找回密码
 立及住厕
搜索

发帖

[16Bit] [WAV][POP] 琴音 / 願い 2018 16bit/44.1khz

[复制链接]

3

主题

3

贡献

26

帖子

新手上路

Rank: 1

积分
18
发表于 2019-2-6 19:00:36
封面 :
願い/琴音.jpg

簡介 : テレビ朝日「今夜、誕生!音楽チャンプ」初代グランドチャンプ
「ワン!チャン!! ~ビクターロック祭り2018への挑戦~」グランプリ

ビクターエンタテインメントとEggs主催によるオーディション「ワン!チャン!! ~ビクターロック祭り2018への挑戦~」
グランプリ獲得記念盤! 16歳のシンガー・ソングライター琴音(ことね)、初のミニ・アルバム。
琴音は、新潟県出身の現在16歳のシンガー・ソングライター。地元である新潟や東京を中心にライブ活動を重ねているほ
か、テレビ朝日「今夜、誕生!音楽チャンプ」にて4回連続勝ち抜き、初代グランドチャンプに輝くなど、透明感のある
歌聲と安定した歌唱力で注目を集めています。
本作は、「願い」などこれまでの彼女の代表曲とも言える5曲で構成。Eggsで公開している音源ではなく、サウンドプロ
デューサーを迎え琴音の中にあったイメージを実現し彼女の持つ歌聲の良さをさらに引き立てる作品に仕上がっている。
テレビで琴音のことを知ったという方はもちろん、Eggsや自主製作盤を通して楽曲を楽しんでいたという方にとっても、
彼女の新たな魅力に出會える內容に仕上がっていますので、CDの発売はもちろん、今後の活躍にもご期待ください。

曲目 :  
1.願い
2.音色 3.記憶
4. last word
5.大切なあなたへ

获取本隐藏内容需支付6新币 支付


本主題所有hires音樂和無損音樂內容均為互聯網採集所得,本站僅對作品介紹展示,不直接提供下載服務。另本站音樂相關內容皆從網上蒐集轉載,如侵犯您的權益,請通知我們,我們將及時刪除。如果你喜歡主題所述內容,請你通過正規渠道購買正版。




使用道具 举报 回复
Exact Audio Copy V1.3 from 2. September 2016

EAC extraction logfile from 3. October 2018, 23:22

琴音 / 願い

Used drive  : ASUS    BC-12D2HT   Adapter: 1  ID: 0

Read mode               : Secure
Utilize accurate stream : Yes
Defeat audio cache      : Yes
Make use of C2 pointers : Yes

Read offset correction                      : 6
Overread into Lead-In and Lead-Out          : No
Fill up missing offset samples with silence : Yes
Delete leading and trailing silent blocks   : No
Null samples used in CRC calculations       : Yes
Used interface                              : Native Win32 interface for Win NT & 2000
Gap handling                                : Appended to previous track

Used output format : Internal WAV Routines
Sample format      : 44.100 Hz; 16 Bit; Stereo


TOC of the extracted CD

     Track |   Start  |  Length  | Start sector | End sector
    ---------------------------------------------------------
        1  |  0:00.00 |  5:15.68 |         0    |    23692   
        2  |  5:15.68 |  3:57.17 |     23693    |    41484   
        3  |  9:13.10 |  4:01.20 |     41485    |    59579   
        4  | 13:14.30 |  4:20.64 |     59580    |    79143   
        5  | 17:35.19 |  5:33.14 |     79144    |   104132   


Track  1

     Filename E:\Music\整理區\願い/琴音\01 願い.wav

     Pre-gap length  0:00:02.00

     Peak level 99.8 %
     Extraction speed 1.6 X
     Track quality 100.0 %
     Copy CRC 3E61695B
     Track not present in AccurateRip database
     Copy OK

Track  2

     Filename E:\Music\整理區\願い/琴音\02 音色.wav

     Pre-gap length  0:00:03.00

     Peak level 99.8 %
     Extraction speed 1.6 X
     Track quality 100.0 %
     Copy CRC AE546E17
     Track not present in AccurateRip database
     Copy OK

Track  3

     Filename E:\Music\整理區\願い/琴音\03 記憶.wav

     Pre-gap length  0:00:01.38

     Peak level 96.2 %
     Extraction speed 1.6 X
     Track quality 100.0 %
     Copy CRC 6BB1FC60
     Track not present in AccurateRip database
     Copy OK

Track  4

     Filename E:\Music\整理區\願い/琴音\04 last word.wav

     Pre-gap length  0:00:03.00

     Peak level 87.8 %
     Extraction speed 1.6 X
     Track quality 100.0 %
     Copy CRC 4175B584
     Track not present in AccurateRip database
     Copy OK

Track  5

     Filename E:\Music\整理區\願い/琴音\05 大切なあなたへ.wav

     Pre-gap length  0:00:03.00

     Peak level 99.8 %
     Extraction speed 1.6 X
     Track quality 100.0 %
     Copy CRC BD12E151
     Track not present in AccurateRip database
     Copy OK


None of the tracks are present in the AccurateRip database

No errors occurred

End of status report

---- CUETools DB Plugin V2.1.6

[CTDB TOCID: OXN_.RbuBMWF1aK14s1czWj6DkI-] found
Submit result: OXN_.RbuBMWF1aK14s1czWj6DkI- has been confirmed
Track | CTDB Status
  1   | (6/6) Accurately ripped
  2   | (6/6) Accurately ripped
  3   | (6/6) Accurately ripped
  4   | (6/6) Accurately ripped
  5   | (6/6) Accurately ripped


==== Log checksum E13C306981798DB27DCF8ED614AD7A5BB9EEEB53F22122CD4634DAA694E7F677 ====
使用道具 举报 回复 支持 反对
您需要登录后才可以回帖 登录 | 立及住厕

本版积分规则