用户
 找回密码
 立及住厕
搜索

发帖

[16Bit] [WAV][POP] 當山みれい - 願い/E.P. 2017 16bit/44.1khz

[复制链接]

6

主题

6

贡献

79

帖子

新手上路

Rank: 1

积分
36
发表于 2019-2-6 18:42:09
本帖最后由 s2003114abc 于 2019-3-27 21:23 编辑

封面 :
41VK42UbjKL.jpg

簡介 :
圧倒的な歌唱力を持ち、RADIO FISHへの客演でも話題のシンガー當山みれいによるep
著うたとしても大ヒットした名曲「願いfeat.YU-A /童子-T」の、10年越しのアンサーソングや、各種映畫祭で「泣ける」と話題のショートフィルム「明日への約束」テーマソングなど、様々な"別れ"の悲しみや、もう伝える事ができない相手への屆かぬ想いを當山みれいがエモーショナルに歌う、"泣ける"楽曲を集めたep


曲目 :
1.願い~あの頃のキミへ~      
2.光
3. First Heartbreak      
4. Goodbye My Love      
5. Missing You


获取本隐藏内容需支付15新币 支付


本主題所有hires音樂和無損音樂內容均為互聯網採集所得,本站僅對作品介紹展示,不直接提供下載服務。另本站音樂相關內容皆從網上蒐集轉載,如侵犯您的權益,請通知我們,我們將及時刪除。如果你喜歡主題所述內容,請你通過正規渠道購買正版。
使用道具 举报 回复
Exact Audio Copy V1.3 from 2. September 2016

EAC extraction logfile from 4. February 2019, 16:57

當山 みれい / 願い E.P.

Used drive  : ASUS    BC-12D2HT   Adapter: 1  ID: 0

Read mode               : Secure
Utilize accurate stream : Yes
Defeat audio cache      : Yes
Make use of C2 pointers : Yes

Read offset correction                      : 6
Overread into Lead-In and Lead-Out          : No
Fill up missing offset samples with silence : Yes
Delete leading and trailing silent blocks   : No
Null samples used in CRC calculations       : Yes
Used interface                              : Native Win32 interface for Win NT & 2000
Gap handling                                : Appended to previous track

Used output format : Internal WAV Routines
Sample format      : 44.100 Hz; 16 Bit; Stereo


TOC of the extracted CD

     Track |   Start  |  Length  | Start sector | End sector
    ---------------------------------------------------------
        1  |  0:00.00 |  5:40.32 |         0    |    25531   
        2  |  5:40.32 |  3:44.68 |     25532    |    42399   
        3  |  9:25.25 |  3:52.55 |     42400    |    59854   
        4  | 13:18.05 |  3:50.52 |     59855    |    77156   
        5  | 17:08.57 |  5:07.20 |     77157    |   100201   


Track  1

     Filename E:\Music\整理區\願い E.P\01 願い~あの頃のキミへ~.wav

     Pre-gap length  0:00:02.00

     Peak level 99.9 %
     Extraction speed 1.7 X
     Track quality 100.0 %
     Copy CRC 126E86B6
     Accurately ripped (confidence 3)  [D57D0CEE]  (AR v2)
     Copy OK

Track  2

     Filename E:\Music\整理區\願い E.P\02 光.wav

     Peak level 99.9 %
     Extraction speed 1.5 X
     Track quality 100.0 %
     Copy CRC 50A6DC38
     Accurately ripped (confidence 3)  [0037AC3A]  (AR v2)
     Copy OK

Track  3

     Filename E:\Music\整理區\願い E.P\03 First Heartbreak.wav

     Peak level 99.9 %
     Extraction speed 1.5 X
     Track quality 100.0 %
     Copy CRC 450D0BF2
     Accurately ripped (confidence 3)  [6D140895]  (AR v2)
     Copy OK

Track  4

     Filename E:\Music\整理區\願い E.P\04 Goodbye My Love.wav

     Peak level 99.9 %
     Extraction speed 1.3 X
     Track quality 99.9 %
     Copy CRC 6E20C497
     Accurately ripped (confidence 3)  [4F8DF35C]  (AR v2)
     Copy OK

Track  5

     Filename E:\Music\整理區\願い E.P\05 Missing You.wav

     Peak level 99.9 %
     Extraction speed 1.6 X
     Track quality 100.0 %
     Copy CRC BDD32A20
     Accurately ripped (confidence 3)  [4C29BAFC]  (AR v2)
     Copy OK


All tracks accurately ripped

No errors occurred

End of status report

---- CUETools DB Plugin V2.1.6

[CTDB TOCID: IWefh9WGH_zSLRYimaSNrAEg.TQ-] found
Submit result: already submitted
Track | CTDB Status
  1   | (12/12) Accurately ripped
  2   | (12/12) Accurately ripped
  3   | (12/12) Accurately ripped
  4   | (12/12) Accurately ripped
  5   | (12/12) Accurately ripped


==== Log checksum F9F8A1F4DDEC01C0E5E068699093E54365D5E0626FDA4BC769968C2177511CF1 ====
使用道具 举报 回复 支持 反对
发表于 2019-2-9 21:23:27
谢谢s2003114abc的分享!
使用道具 举报 回复 支持 反对
发表于 2019-2-10 21:21:05
谢谢s2003114abc的分享!
使用道具 举报 回复 支持 反对
发表于 2019-3-12 02:37:04
谢谢s2003114abc的分享!
使用道具 举报 回复 支持 反对
发表于 2019-3-12 15:49:59
谢谢s2003114abc的分享!
使用道具 举报 回复 支持 反对
发表于 2019-3-12 20:39:54
谢谢s2003114abc的分享!
使用道具 举报 回复 支持 反对
发表于 2019-3-12 22:04:32
谢谢s2003114abc的分享!
使用道具 举报 回复 支持 反对
发表于 2019-4-4 09:23:06
谢谢s2003114abc的分享!
使用道具 举报 回复 支持 反对
谢谢s2003114abc的分享!
使用道具 举报 回复 支持 反对
谢谢s2003114abc的分享!
使用道具 举报 回复 支持 反对
您需要登录后才可以回帖 登录 | 立及住厕

本版积分规则