用户
 找回密码
 立及住厕
搜索

发帖

[16Bit] [自抓禁转][WAV][Vocal] Andrea Bocelli - Sì (Deluxe Edition) 2018 WAV整轨

[复制链接]
发表于 2018-11-7 16:01:58
谢谢五菱宏光的分享!
使用道具 举报 回复 支持 反对
发表于 2018-11-8 10:33:47
谢谢五菱宏光的分享!
使用道具 举报 回复 支持 反对
发表于 2018-11-8 10:34:47
谢谢五菱宏光的分享!
使用道具 举报 回复 支持 反对
发表于 2018-11-8 12:42:48
谢谢五菱宏光的分享!
使用道具 举报 回复 支持 反对
发表于 2018-11-9 21:33:50
谢谢五菱宏光的分享!
使用道具 举报 回复 支持 反对
发表于 2018-11-10 10:33:07
谢谢五菱宏光的分享!
使用道具 举报 回复 支持 反对
发表于 2018-11-12 09:42:55
谢谢五菱宏光的分享!
使用道具 举报 回复 支持 反对
发表于 2018-11-12 21:57:29
谢谢五菱宏光的分享!
使用道具 举报 回复 支持 反对
发表于 2018-11-14 09:25:21
谢谢五菱宏光的分享!
使用道具 举报 回复 支持 反对
发表于 2018-11-14 14:20:34
本帖最后由 oneness 于 2018-11-14 14:44 编辑

PERFORMER "Andrea Bocelli"
TITLE "Sì"
REM DATE 2018
FILE "Andrea Bocelli - Sì.wav" WAVE
  TRACK 01 AUDIO
    TITLE "Ali di Libertà"
    INDEX 01 00:00:00
  TRACK 02 AUDIO
    TITLE "Amo Soltanto Te"
    PERFORMER "Andrea Bocelli/Ed Sheeran"
    INDEX 01 03:32:21
  TRACK 03 AUDIO
    TITLE "Un'Anima"
    INDEX 01 06:54:74
  TRACK 04 AUDIO
    TITLE "If Only Mandarin"
    PERFORMER "Andrea Bocelli/张惠妹"
    INDEX 01 11:27:05
  TRACK 05 AUDIO
    TITLE "Gloria The Gift Of Life"
    INDEX 01 15:06:56
  TRACK 06 AUDIO
    TITLE "Fall On Me"
    PERFORMER "Andrea Bocelli/Matteo Bocelli"
    INDEX 01 18:54:67
  TRACK 07 AUDIO
    TITLE "We Will Meet Once Again"
    PERFORMER "Andrea Bocelli/Josh Groban"
    INDEX 01 23:14:31
  TRACK 08 AUDIO
    TITLE "I am Here"
    INDEX 01 27:10:65
  TRACK 09 AUDIO
    TITLE "Vertigo"
    INDEX 01 31:00:08
  TRACK 10 AUDIO
    TITLE "Vivo"
    INDEX 01 35:35:49
  TRACK 11 AUDIO
    TITLE "Dormi Dormi"
    INDEX 01 39:58:52
  TRACK 12 AUDIO
    TITLE "Ave Maria Pietas"
    PERFORMER "Andrea Bocelli/Aida Garifullina"
    INDEX 01 44:05:31
  TRACK 13 AUDIO
    TITLE "Meditation"
    INDEX 01 48:20:12
  TRACK 14 AUDIO
    TITLE "Miele Impuro"
    INDEX 01 52:29:59
  TRACK 15 AUDIO
    TITLE "Sono Qui(Acoustic Version)"
    INDEX 01 55:40:52
  TRACK 16 AUDIO
    TITLE "Ali di Libertà(Acoustic Version)"
    INDEX 01 60:08:09
  TRACK 17 AUDIO
    TITLE "If Only"
    PERFORMER "Andrea Bocelli/Dua Lipa"
    INDEX 01 63:41:56
使用道具 举报 回复 支持 反对
发表于 2018-11-17 17:58:56
谢谢五菱宏光的分享!
使用道具 举报 回复 支持 反对
发表于 2018-11-18 01:56:04
谢谢五菱宏光的分享!
使用道具 举报 回复 支持 反对
发表于 2018-11-18 09:08:52
上帝给他关上了一扇门,但是也给他打开了一扇门,要是关的门多了,剩下的那扇也更加厉害,比如霍金!这世界说公平其实也算是真不绝人千里之外!
使用道具 举报 回复 支持 反对
发表于 2018-11-18 16:22:00
oneness 发表于 2018-11-14 14:20
PERFORMER "Andrea Bocelli"
TITLE "Sì"
REM DATE 2018

谢谢你写的CUE文件
使用道具 举报 回复 支持 反对
发表于 2018-11-19 13:21:27
谢谢五菱宏光的分享!
使用道具 举报 回复 支持 反对
发表于 2018-11-19 18:16:38
谢谢五菱宏光的分享!
使用道具 举报 回复 支持 反对
发表于 2018-11-20 13:16:53
谢谢五菱宏光的分享!
使用道具 举报 回复 支持 反对
发表于 2018-11-22 04:52:08
谢谢五菱宏光的分享!
使用道具 举报 回复 支持 反对
发表于 2018-12-7 10:15:21
谢谢五菱宏光的分享!
使用道具 举报 回复 支持 反对
发表于 2018-12-8 01:49:29
谢谢五菱宏光的分享!
使用道具 举报 回复 支持 反对
发表于 2018-12-9 17:42:37
谢谢五菱宏光的分享!
使用道具 举报 回复 支持 反对
发表于 2018-12-9 23:47:58
谢谢五菱宏光的分享!
使用道具 举报 回复 支持 反对
发表于 2018-12-16 15:54:51
谢谢五菱宏光的分享!
使用道具 举报 回复 支持 反对
发表于 2018-12-16 22:13:19
谢谢五菱宏光的分享!
使用道具 举报 回复 支持 反对
发表于 2018-12-17 18:15:49
谢谢五菱宏光的分享!
使用道具 举报 回复 支持 反对
发表于 2018-12-18 23:17:33
谢谢五菱宏光的分享!
使用道具 举报 回复 支持 反对
发表于 2018-12-20 13:03:09
谢谢五菱宏光的分享!
使用道具 举报 回复 支持 反对
发表于 2018-12-26 10:18:40
谢谢五菱宏光的分享!
使用道具 举报 回复 支持 反对
12
返回列表 发新帖
您需要登录后才可以回帖 登录 | 立及住厕

本版积分规则