用户
 找回密码
 立及住厕
搜索

[16Bit] [WAV][Sampler] 2018 广州国际音响唱片展 纪念CD 16/44

[复制链接]

17

主题

19

贡献

93

帖子

团购会员

积分
107
发表于 7 天前
本帖最后由 东木小子 于 2018-9-19 00:40 编辑

封面:
cover.jpg

简介:
   2018广州国际音响唱片展 将于9月14-16日,在广州东方宾馆和中国大酒店举行。“广州国际音响唱片展”,是目前全国最大型的民用音响展览,被海外媒体誉为世界三大民用器材音响展之一。  本CD为展会纪念CD,非卖品。雅马哈F1抓轨为整轨+CUE文件。

无损音乐曲目:

1、Mozart:Divertimento in D,K.136: 1.Allegro
2、September song(Buddy Tate)
3、Blue Mind(Anne Bisson)
4、Des Knaben Wunderhorn-Revelge
5、梦中人(姚璎格)
6、Oh,Shake it(Sergio Lara)
7、天涯歌女(龚玥)
8、铁血丹心(罗文 甄妮)
9、Schumann:3 Romanzen,Op.94
10、Besame mucho(杨岩)
11、Symphonie Espagnole,OP.21 III.Intermezzo
12、粉红色的一生(朱紫娆)
13、Dvorak:Song to the Moon from Rusalka
14、《黄河钢琴协奏曲》保卫黄河

获取本隐藏内容需支付15新币 支付


本主题所有hires无损音乐内容均为互联网采集所得,本站仅对作品介绍展示,不直接提供下载服务。另本站音乐相关内容皆从网上搜集转载,如侵犯您的权益,请通知我们,我们将及时删除。如果你喜欢主题所述内容,请你通过正规渠道购买正版。
使用道具 举报 回复
Exact Audio Copy V1.3 from 2. September 2016

EAC 抓取日志文件从16. 九月 2018, 23:16

群星 / 2018广州国际音响唱片展纪念CD

使用驱动器  :YAMAHA  CRW-F1E   Adapter: 1  ID: 0

读取模式      : 可靠Secure
使用精确流     : 是
清空音频缓存    : 是
使用 C2 指示器 : 否

读取偏移校正:               : 733
读取 Lead-In 和 Lead-Out : 否
用静音填充抓取中丢失偏移的采样       : 是
去除首尾静音块               : 否
在CRC 计算中使用了空样本       : 是
已用接口                  : Win NT 及 2000 本地 Win32 接口

所用输出模式: : 内部 WAV 函数
样本格式    : 44.100 Hz; 16 Bit; 立体声


已抓取 CD 的 TOC

     音轨 |    起始    |    长度    |  起始扇区  |  结束扇区  
    --------------------------------------------
      1 |  0:00.00 |  4:12.09 |      0 |  18908
      2 |  4:12.09 |  4:33.56 |  18909 |  39439
      3 |  8:45.65 |  4:19.30 |  39440 |  58894
      4 | 13:05.20 |  7:05.45 |  58895 |  90814
      5 | 20:10.65 |  3:56.74 |  90815 | 108588
      6 | 24:07.64 |  3:54.33 | 108589 | 126171
      7 | 28:02.22 |  4:06.24 | 126172 | 144645
      8 | 32:08.46 |  2:52.56 | 144646 | 157601
      9 | 35:01.27 |  3:53.12 | 157602 | 175088
     10 | 38:54.39 |  5:27.53 | 175089 | 199666
     11 | 44:22.17 |  5:45.09 | 199667 | 225550
     12 | 50:07.26 |  2:54.65 | 225551 | 238665
     13 | 53:02.16 |  5:36.03 | 238666 | 263868
     14 | 58:38.19 |  6:09.20 | 263869 | 291563


范围状态及错误

已选择范围

     文件名 C:\Users\Administrator\Desktop\群星 - 2018广州国际音响唱片展纪念CD.wav

     峰值电平 100.0 %
     抓取速度 4.9 X
     范围质量 100.0 %
     复制 CRC B8155205
     复制成功

没有错误发生
back.jpg
使用道具 举报 回复 支持 反对
谢谢东木小子
使用道具 举报 回复 支持 反对
动作挺快的,一般音响展纪念碟子质量都不错,虽然很多曲子听过。
使用道具 举报 回复 支持 反对
发表于 4 天前
須不可以下載但也謝謝分享
使用道具 举报 回复 支持 反对
发表于 昨天 22:13
谢谢谢谢谢谢
使用道具 举报 回复 支持 反对
您需要登录后才可以回帖 登录 | 立及住厕

本版积分规则