用户
 找回密码
 立及住厕
搜索

[16Bit] [自购禁转][FLAC][POP] 香港群星 - 环球高歌陈百强 The World Sings Danny Chan 2018 16/44

[复制链接]

14

主题

20

贡献

23

帖子

注册会员

Rank: 2

积分
99
发表于 2018-9-3 01:32:14
本帖最后由 elt 于 2018-9-7 00:03 编辑

封面:
Cover.jpg IMG_9921.JPG
IMG_9922.JPG

简介:
陈百强(Danny)离世25载,9月7日是他的60岁冥寿。众歌手重新演绎Danny的经典作品13首,包括谭咏麟翻唱“今宵多珍重”、陈慧娴“偏偏喜欢你”、陈奕迅“深爱着你”、林子祥“有了你”、杨千嬅“梦里人”,还有叶蒨文、钟镇涛、卢冠廷、苏永康、刘美君、关淑怡、梁咏琪等曾与Danny曾经相识、合作和仰慕他的歌手朋友们助阵,结集成全新录音制作的《环球高歌陈百强》,向他致敬。

环球高歌.头号男神陈百强60年用最高的敬意.续写丹尼仔神级传说
12位如假包换顶级巨星.用心高唱13首丹尼仔深得人心名篇
2018全新录音制作.合约所限 部份歌曲日后不可重出.必成绝版
特别采用专色专纸的高素材质印刷,设计装潢满载心思的独特性


hires音乐资源的曲目:
01. 今宵多珍重 - 谭咏麟  
02. 一生何求 - 钟镇涛  
03. 突破 - 卢冠廷  
04. 偏偏喜欢你 - 陈慧娴
05. 从今以后 - 苏永康  
06. 粉红色的一生 - 刘美君  
07. 涟漪 - 关淑怡
08. 深爱着你 - 陈奕迅
09. 恋爱预告 - 梁咏琪  
10. 梦里人 - 杨千嬅  
Bonus Tracks  
11. 有了你 - 林子祥  
12. 疾风 - 叶蒨文 feat. 林子祥  
13. 画出彩虹 - 叶蒨文

PS: 按兄弟要求,新加了WAV整轨连结


X Lossless Decoder version 20170729 (150.3)

XLD extraction logfile from 2018-09-06 22:59:19 +0800

Various Artists / 環球高歌陳百強 The World Sings Danny Chan

Used drive : PIONEER BD-RW  BDR-XD07U (revision 1.00)
Media type : Pressed CD

Ripper mode             : XLD Secure Ripper
Disable audio cache     : OK for the drive with a cache less than 1375KiB
Make use of C2 pointers : NO
Read offset correction  : 0
Max retry count         : 20
Gap status              : Analyzed, Appended

TOC of the extracted CD
     Track |   Start  |  Length  | Start sector | End sector
    ---------------------------------------------------------
        1  | 00:00:00 | 03:56:50 |         0    |    17749   
        2  | 03:56:50 | 04:24:45 |     17750    |    37594   
        3  | 08:21:20 | 03:47:51 |     37595    |    54670   
        4  | 12:08:71 | 04:06:18 |     54671    |    73138   
        5  | 16:15:14 | 04:49:32 |     73139    |    94845   
        6  | 21:04:46 | 04:15:62 |     94846    |   114032   
        7  | 25:20:33 | 03:48:09 |    114033    |   131141   
        8  | 29:08:42 | 04:14:65 |    131142    |   150256   
        9  | 33:23:32 | 03:54:34 |    150257    |   167840   
       10  | 37:17:66 | 04:03:01 |    167841    |   186066   
       11  | 41:20:67 | 05:08:27 |    186067    |   209193   
       12  | 46:29:19 | 03:38:63 |    209194    |   225606   
       13  | 50:08:07 | 03:59:14 |    225607    |   243545   


获取本隐藏内容需支付10新币 支付


本主题所有hires音乐和无损音乐内容均为互联网采集所得,本站仅对作品介绍展示,不直接提供下载服务。另本站音乐相关内容皆从网上搜集转载,如侵犯您的权益,请通知我们,我们将及时删除。如果你喜欢主题所述内容,请你通过正规渠道购买正版。

使用道具 举报 回复
发表于 2018-9-3 18:04:28
thanks for your sharing
使用道具 举报 回复 支持 反对
发表于 2018-9-3 18:49:01
如果是wav就好了。。。
使用道具 举报 回复 支持 反对
发表于 2018-9-4 03:03:22
如果是iso就好了
使用道具 举报 回复 支持 反对
发表于 2018-9-4 09:06:16
感谢分享。这张忍住没买,等SACD.
使用道具 举报 回复 支持 反对
发表于 2018-9-4 09:57:01
超棒~~~感谢楼主!!
使用道具 举报 回复 支持 反对
发表于 2018-9-4 23:33:08
可以抓wav正軌嗎?
使用道具 举报 回复 支持 反对
发表于 2018-9-5 03:28:45
jkyon88 发表于 2018-9-4 23:33
可以抓wav正軌嗎?

可以,這兩天內弄
使用道具 举报 回复 支持 反对
发表于 2018-9-5 23:15:26
elt 发表于 2018-9-5 03:28
可以,這兩天內弄

整轨弄了@我哦.
使用道具 举报 回复 支持 反对
发表于 2018-9-6 21:11:48
期待楼主的WAV整轨。。。。
使用道具 举报 回复 支持 反对
发表于 2018-9-7 00:05:27

呵呵,这两天寛带挂了,已新增WAV整轨

使用道具 举报 回复 支持 反对
发表于 2018-9-7 00:05:57
东木小子 发表于 2018-9-6 21:11
期待楼主的WAV整轨。。。。

弄好了,新加了连结

使用道具 举报 回复 支持 反对
发表于 2018-9-7 00:09:08
elt 发表于 2018-9-7 00:05
弄好了,新加了连结

感謝。。。
使用道具 举报 回复 支持 反对
发表于 2018-9-7 20:03:15
两个不同吗?
使用道具 举报 回复 支持 反对
发表于 2018-9-7 20:04:22
10/50呢!不明
使用道具 举报 回复 支持 反对
发表于 2018-9-8 03:27:34

应该没有不同,只是存档格式不同,WAV整轨是没有压缩的倒出来吧,感觉是原味一点吧~

使用道具 举报 回复 支持 反对
发表于 2018-9-8 16:13:32
本帖最后由 vincekingdom 于 2018-9-9 17:09 编辑
日月迷离 发表于 2018-9-4 09:06
感谢分享。这张忍住没买,等SACD.

但怕SACD跟網售Hi-Res版一樣, 沒有了三首最好聽的bonus tracks...
無雀的腳仔
使用道具 举报 回复 支持 反对
发表于 2018-9-9 12:35:40
can't connect from above link
使用道具 举报 回复 支持 反对
发表于 2018-9-9 14:34:28
frankiecheung 发表于 2018-9-9 12:35
can't connect from above link

我刚试了一下都没有问提噢

使用道具 举报 回复 支持 反对
发表于 前天 20:52
thank you very much
使用道具 举报 回复 支持 反对
您需要登录后才可以回帖 登录 | 立及住厕

本版积分规则