用户
 找回密码
 立及住厕
搜索

[16Bit] [FLAC][POP] Apink (에이핑크) - ONE & SIX 2018 16/44.1 + PV Bugs!

[复制链接]

583

主题

529

贡献

729

帖子

团购会员

积分
3588
发表于 2018-7-3 09:21:09



Apink 7th Mini Album [ONE & SIX] 발매!
여섯 명의 다양한 매력을 보여주는 앨범 [ONE & SIX]
데뷔 후 처음으로 변화를 선보이는 에이핑크의 ‘1도 없어’


1. 1도 없어

2. A L R I G H T
3. Don't be silly
4. 별 그리고..
5. 말보다 너
6. I Like That Kiss

Download .FLAC 156MB:
获取本隐藏内容需支付8新币 支付


PV Bugs!





  1. General
  2. Unique ID                      : 202797427428955903873953910826323186118 (0x98915D22D97DEBBCB8A99F3803C891C6)
  3. Complete name                  : H:\APink - I am so sick (1).mkv
  4. Format                         : Matroska
  5. Format version                 : Version 4 / Version 2
  6. File size                      : 782 MiB
  7. Duration                       : 3 min 36 s
  8. Overall bit rate               : 30.3 Mb/s
  9. Encoded date                   : UTC 2018-07-03 01:03:12
  10. Writing application            : mkvmerge v24.0.0 ('Beyond The Pale') 64-bit
  11. Writing library                : libebml v1.3.6 + libmatroska v1.4.9 / Lavf57.56.101
  12. Attachments                    : Cooper Black.ttf

  13. Video
  14. ID                             : 1
  15. Format                         : AVC
  16. Format/Info                    : Advanced Video Codec
  17. Format profile                 : Main@L4.1
  18. Format settings                : CABAC / 4 Ref Frames
  19. Format settings, CABAC         : Yes
  20. Format settings, ReFrames      : 4 frames
  21. Codec ID                       : V_MPEG4/ISO/AVC
  22. Duration                       : 3 min 36 s
  23. Bit rate                       : 30.0 Mb/s
  24. Width                          : 1 920 pixels
  25. Height                         : 1 080 pixels
  26. Display aspect ratio           : 16:9
  27. Frame rate mode                : Constant
  28. Frame rate                     : 23.976 (24000/1001) FPS
  29. Standard                       : NTSC
  30. Color space                    : YUV
  31. Chroma subsampling             : 4:2:0
  32. Bit depth                      : 8 bits
  33. Scan type                      : Progressive
  34. Bits/(Pixel*Frame)             : 0.604
  35. Stream size                    : 773 MiB (99%)
  36. Writing library                : AVC Coding
  37. Language                       : English
  38. Default                        : Yes
  39. Forced                         : No
  40. Color range                    : Limited
  41. Color primaries                : BT.709
  42. Transfer characteristics       : BT.709
  43. Matrix coefficients            : BT.709

  44. Audio
  45. ID                             : 2
  46. Format                         : AAC
  47. Format/Info                    : Advanced Audio Codec
  48. Format profile                 : LC
  49. Codec ID                       : A_AAC-2
  50. Duration                       : 3 min 36 s
  51. Bit rate                       : 317 kb/s
  52. Channel(s)                     : 2 channels
  53. Channel positions              : Front: L R
  54. Sampling rate                  : 48.0 kHz
  55. Frame rate                     : 46.875 FPS (1024 SPF)
  56. Compression mode               : Lossy
  57. Stream size                    : 8.17 MiB (1%)
  58. Language                       : English
  59. Default                        : Yes
  60. Forced                         : No

复制代码


Download .MKV 781MB
获取本隐藏内容需支付2新币 支付

本主题所有无损音乐内容均为互联网采集所得,本站仅对作品介绍展示,不直接提供下载服务。另本站音乐相关内容皆从网上搜集转载,如侵犯您的权益,请通知我们,我们将及时删除。如果你喜欢主题所述内容,请你通过正规渠道购买正版。
使用道具 举报 回复
您需要登录后才可以回帖 登录 | 立及住厕

本版积分规则