用户
 找回密码
 立及住厕
搜索

发帖

[16Bit] [WAV][POP] Scotty 史考特 - SAINT MIC 圣咪 UHQCD 2016 16/44

[复制链接]

17

主题

19

贡献

112

帖子

团购会员

积分
107
发表于 2018-3-4 01:43:29
本帖最后由 东木小子 于 2018-6-24 01:53 编辑

封面:
0011.jpg

简介:
AM 6038UHQ
世界公认爵士发烧碟
Saint Mic 聖咪 UHQCD 原装正版

世界公认殿堂三藩市歌星 香港TIS录音 圣咪 日本UHQCD

集世上最好的三大发烧要素,好歌星,靓录音,棒压片,用玻璃CD 12800元的五十分之一价格感受最接近玻璃的音效。美国时报,电台力赞,台展场碟,欧美音响,撑场必播。
    蓝影Blue Light黑人Scotty Wright,唱片总销量超过5000,000张;
2010台湾音展场碟入选曲Sound of Silence;
欧美音响品牌多次老翻TIS 圣咪Soung of silence同TIS 天造地切,豪配天工成为音响代理试机,音响展撑场的不二选择;
曾被众爵士杂志,音乐杂志及美国时报有报张,电视,电台力赞(碟内CD Plus功能,用电脑打开有详细介绍);
演唱足迹遍全球欧美,沙地,地中海,只要有叠水又识音乐的六星酒店,就有Scotty 的足印;
    上帝赐予史考特「低沉润厚」的脱俗歌喉,成就了一张不可一世的人声发烧碟「沉默之声」,特有的磁性声线,成了化学反应,顿时有令人醉倒感。人声一字一字的唱出,声音响亮如钟,铿锵有力;人声线条分明,圆润如珠,散发着迷人的光彩。发烧音响主编在CELLO SHOW中播放时,音敦惊人,发烧友随即四处蒐猎。SCOTTY是稀有的爵士歌手,能以爵士唱腔演译出清新浪漫的情歌,音色沉厚,富质感的声线,与生具来亮丽而多变化的风格,是爵士界的新宠。

    Scotty是稀有的爵士歌手,能以亮麗而多變化的風格演譯出清新浪漫的情 歌,是爵士界的新寵。本碟音效驚人,以日本UHQCD技術製碟,還原出蕞接近母帶的音質。

日本Memory Tech製造

无损音乐曲目:
01. Sound of silence   
02. Yesterday once more   
03. When I fall in love   
04. Unforgettable   
05. Dream a little dream   
06. Antonio's song   
07. Amazing grace   
08. Masquerade   
09. Try to remember   
10. Killing me softly with his song   
11. Sometimes when we touch   
12. Love me tender
13. The Island

试听:

获取本隐藏内容需支付10新币 支付


本主题所有无损音乐内容均为互联网采集所得,本站仅对作品介绍展示,不直接提供下载服务。另本站音乐相关内容皆从网上搜集转载,如侵犯您的权益,请通知我们,我们将及时删除。如果你喜欢主题所述内容,请你通过正规渠道购买正版。
使用道具 举报 回复
自购正版,雅马哈F1慢速抓轨。图片自扫,介绍来源于网络。本音轨仅供试听,请勿用于任何商业用途,下载24小时内请予删除。如若喜欢请购买正版CD。 cd1.jpg
使用道具 举报 回复 支持 反对
本帖最后由 东木小子 于 2018-6-24 01:53 编辑

Exact Audio Copy V1.3 from 2. September 2016

EAC 抓取日志文件从3. 三月 2018, 3:02

Scotty / Saint Mic 圣咪 UHQCD

使用驱动器  :YAMAHA  CRW-F1E   Adapter: 1  ID: 0

读取模式      : 可靠Secure
使用精确流     : 是
清空音频缓存    : 是
使用 C2 指示器 : 否

读取偏移校正:               : 733
读取 Lead-In 和 Lead-Out : 否
用静音填充抓取中丢失偏移的采样       : 是
去除首尾静音块               : 否
在CRC 计算中使用了空样本       : 是
已用接口                  : Win NT 及 2000 本地 Win32 接口

所用输出模式: : 内部 WAV 函数
样本格式    : 44.100 Hz; 16 Bit; 立体声


已抓取 CD 的 TOC

      音轨 |    起始    |    长度    |  起始扇区  |  结束扇区  
     --------------------------------------------
      1 |  0:00.00 |  4:45.45 |      0 |  21419
       2 |  4:45.45 |  4:58.27 |  21420 |  43796
       3 |  9:43.72 |  5:36.69 |  43797 |  69065
       4 | 15:20.66 |  3:01.28 |  69066 |  82668
       5 | 18:22.19 |  3:05.19 |  82669 |  96562
       6 | 21:27.38 |  3:54.43 |  96563 | 114155
       7 | 25:22.06 |  4:12.34 | 114156 | 133089
       8 | 29:34.40 |  5:16.22 | 133090 | 156811
       9 | 34:50.62 |  5:13.35 | 156812 | 180321
      10 | 40:04.22 |  7:28.56 | 180322 | 213977
      11 | 47:33.03 |  5:26.14 | 213978 | 238441
      12 | 52:59.17 |  3:30.73 | 238442 | 254264
      13 | 56:30.15 |  4:17.69 | 254265 | 273608


范围状态及错误

已选择范围

     文件名 C:\Users\Administrator\Desktop\Scotty - Saint Mic 圣咪 UHQCD.wav

      峰值电平 100.0 %
      抓取速度 5.1 X
      范围质量 100.0 %
      复制 CRC A81284F0
      复制成功

没有错误发生
back1.jpg
使用道具 举报 回复 支持 反对
发表于 2018-6-23 19:15:18
链接失效了。
使用道具 举报 回复 支持 反对
发表于 2018-6-23 23:49:06
付幣了, 但失效??
使用道具 举报 回复 支持 反对
发表于 2018-6-24 01:54:51
不好意思,链接已修复!
使用道具 举报 回复 支持 反对
发表于 2018-11-9 22:40:32
谢谢东木小子的分享!
使用道具 举报 回复 支持 反对
您需要登录后才可以回帖 登录 | 立及住厕

本版积分规则