用户
 找回密码
 立及住厕
搜索

发帖

[16Bit] [禁转][WAV][POP] 苏曼 - 好久不见 ADMS签名版 2019 16bit

[复制链接]
发表于 2019-3-10 00:24:58
封面:
cover.jpg

简介:
苏曼新专辑《好久不见》
苏曼终于回来了,带着全新专辑《好久不见》,首首经典老歌,依旧是苏曼独有的风格,整张专辑,慢慢唱、轻轻诉,享受苏曼娓娓吟唱,苏曼的声音极容易让人中毒,三年来让我们等这张专辑太久太久!

歌后再归来,我们依然爱你
十年不曾再相见,你依旧展现,我用画笔写满了对你的思念。醇厚的余音环绕千遍,山谷里游满音符的缠绵。我不曾疲倦,苏曼——好久不见!
春风吹散了冬雪,圆月阴晴缺,你的歌声回荡在寂寞的星夜。性感的歌喉吐露真切,凄婉的磁音布满了颜色。你风采不变,苏曼——好久不见!

声音醉人,极易中毒发烧
漂亮得令人嫉妒的声线,富有磁性,韵味十足。高贵而不失舒适,成熟中略带慵懒,如醇香美酒,久品弥香。就如月光下绽放的罂粟花,美丽绝艳,让人上瘾而欲罢不能,这就是苏曼。
苏曼的声线很特殊,醇厚低沉,高贵中略带几许慵懒。午夜时分,倚在舒适的沙发上,听她娓娓地吟唱夜晚的万千思绪,看月光如水,便恍恍惚惚地飘进泛黄的记忆,不知不觉地中了她声音的毒。

蔡琴+徐小凤+张国荣=苏曼
一如资深音乐人对其评价——“苏曼的声音容易让人中毒!”。人声醇厚、磁性无比、感情丰富、音场之宽无人能及,是发烧友梦寐以求的极品女声,可以说是女声中的碟皇,(蔡琴+徐小凤+张国荣=苏曼)用来考验前级的分析力最好不过。

一首歌,慢慢唱,唱到心里去
这张《好久不见》专辑非常毒人,一首歌,慢慢唱,唱到心里去,回味再回味,突然一天我们听懂了,这就是苏曼这张专辑《好久不见》带给我的最大感触。
音乐的魅力,无穷无尽,优美的旋律,动人的歌曲,牵动着我的思绪,丢掉烦恼,忘记悲伤,随着音符的起伏,我的耳朵里只听到苏曼轻轻的吟唱,很是感动。
深夜,一首深情的老歌破空而出,击中心扉。所有的记忆如潮水,决堤而出,你会情不自禁喜欢上苏曼。苏曼这张《好久不见》声音醉人,很适合晚上静静的聆听,令人陶醉。

苏曼《好久不见》,极品发烧女声。头版CD使用ADMS母盘技术压碟,音质出品极好,整张专辑通透、背景宁静。ADMS是LEO老师最新研发的母盘调音技术,提高了音效准确度、现场感、平衡度及细节表现,更增强了音质的通透感和自然宽松度,非常发烧,堪称极品。


无损音乐曲目:
01、矜持
02、心动
03、一生所爱
04、梭罗河
05、天冷就回来
06、海上花
07、到不了
08、好久不见
09、当你老了
10、红豆
11、我只在乎你
12、可惜

查看更多内容请登录登陆或注册


本主题所有hirs音乐和无损音乐内容均为互联网采集所得,本站仅对作品介绍展示,不直接提供下载服务。另本站音乐相关内容皆从网上搜集转载,如侵犯您的权益,请通知我们,我们将及时删除。如果你喜欢主题所述内容,请你通过正规渠道购买正版。
使用道具 举报 回复
Exact Audio Copy V1.3 from 2. September 2016

EAC 抓取日志文件从8. 三月 2019, 21:36

苏曼 / 好久不见 ADMS

使用驱动器  :YAMAHA  CRW-F1E   Adapter: 1  ID: 0

读取模式      : 可靠Secure
使用精确流     : 是
清空音频缓存    : 是
使用 C2 指示器 : 否

读取偏移校正:               : 733
读取 Lead-In 和 Lead-Out : 否
用静音填充抓取中丢失偏移的采样       : 是
去除首尾静音块               : 否
在CRC 计算中使用了空样本       : 是
已用接口                  : Win NT 及 2000 本地 Win32 接口

所用输出模式: : 内部 WAV 函数
样本格式    : 44.100 Hz; 16 Bit; 立体声


已抓取 CD 的 TOC

     音轨 |    起始    |    长度    |  起始扇区  |  结束扇区  
    --------------------------------------------
      1 |  0:00.00 |  4:58.35 |      0 |  22384
      2 |  4:58.35 |  5:02.72 |  22385 |  45106
      3 | 10:01.32 |  5:06.66 |  45107 |  68122
      4 | 15:08.23 |  4:08.18 |  68123 |  86740
      5 | 19:16.41 |  4:06.64 |  86741 | 105254
      6 | 23:23.30 |  4:47.02 | 105255 | 126781
      7 | 28:10.32 |  5:13.72 | 126782 | 150328
      8 | 33:24.29 |  5:18.16 | 150329 | 174194
      9 | 38:42.45 |  5:56.20 | 174195 | 200914
     10 | 44:38.65 |  4:08.18 | 200915 | 219532
     11 | 48:47.08 |  4:10.47 | 219533 | 238329
     12 | 52:57.55 |  3:43.74 | 238330 | 255128


范围状态及错误

已选择范围

     文件名 C:\Users\Administrator\Desktop\苏曼 - 好久不见 ADMS.wav

     峰值电平 97.7 %
     抓取速度 4.9 X
     范围质量 100.0 %
     复制 CRC 49D31240
     复制成功

没有错误发生
使用道具 举报 回复 支持 反对
发表于 2019-3-10 00:27:37
这么快阿,刚出的碟子就有了阿!嘘!老leo不知道,安静。
使用道具 举报 回复 支持 反对
发表于 2019-3-10 00:27:59
谢谢东木小子的分享!
使用道具 举报 回复 支持 反对
发表于 2019-3-10 01:21:51
谢谢东木小子的分享!
使用道具 举报 回复 支持 反对
发表于 2019-3-10 01:25:36
谢谢东木小子的分享!
使用道具 举报 回复 支持 反对
发表于 2019-3-10 01:51:23
谢谢东木小子的分享!
使用道具 举报 回复 支持 反对
发表于 2019-3-10 07:39:38
谢谢东木小子的分享!
使用道具 举报 回复 支持 反对
发表于 2019-3-10 07:56:20
谢谢东木小子的分享!
使用道具 举报 回复 支持 反对
发表于 2019-3-10 08:09:20
谢谢东木小子的分享!
使用道具 举报 回复 支持 反对
发表于 2019-3-10 09:01:43
谢谢东木小子的分享!
使用道具 举报 回复 支持 反对
发表于 2019-3-10 09:07:07
谢谢东木小子的分享!
使用道具 举报 回复 支持 反对
发表于 2019-3-10 09:08:13
谢谢东木小子的分享!
使用道具 举报 回复 支持 反对
发表于 2019-3-10 10:02:39
谢谢东木小子的分享!
使用道具 举报 回复 支持 反对
发表于 2019-3-10 10:09:57
谢谢东木小子的分享!
使用道具 举报 回复 支持 反对
发表于 2019-3-10 10:22:01
谢谢东木小子的分享!
使用道具 举报 回复 支持 反对
发表于 2019-3-10 10:37:05
谢谢东木小子的分享!
使用道具 举报 回复 支持 反对
发表于 2019-3-10 11:16:04
谢谢东木小子的分享!
使用道具 举报 回复 支持 反对
发表于 2019-3-10 11:43:37
谢谢东木小子的分享!
使用道具 举报 回复 支持 反对
发表于 2019-3-10 11:46:27
谢谢东木小子的分享!
使用道具 举报 回复 支持 反对
发表于 2019-3-10 12:30:47
谢谢东木小子的分享!
使用道具 举报 回复 支持 反对
发表于 2019-3-10 13:21:58
谢谢东木小子的分享!
使用道具 举报 回复 支持 反对
发表于 2019-3-10 13:39:38
谢谢东木小子的分享!
使用道具 举报 回复 支持 反对
发表于 2019-3-10 14:06:48
谢谢东木小子的分享!
使用道具 举报 回复 支持 反对
发表于 2019-3-10 14:45:23
谢谢东木小子的分享!
使用道具 举报 回复 支持 反对
发表于 2019-3-10 15:21:43
谢谢东木小子的分享!
使用道具 举报 回复 支持 反对
发表于 2019-3-10 16:03:02
谢谢东木小子的分享!
使用道具 举报 回复 支持 反对
发表于 2019-3-10 17:07:50
谢谢东木小子的分享!
使用道具 举报 回复 支持 反对
发表于 2019-3-10 17:32:52
谢谢东木小子的分享!
使用道具 举报 回复 支持 反对
发表于 2019-3-10 17:45:42
谢谢东木小子的分享!
使用道具 举报 回复 支持 反对
您需要登录后才可以回帖 登录 | 立及住厕

本版积分规则